↑↓torrent.by
Поиск
Логин: Регистрация
Пароль: Восстановить пароль

Турист (2021) WEB-DLRip-AVC от Files-x | iTunes

Скачать turist-2021-web-dlrip-avc-ot-files-x-itunes.torrent
U Магнитная ссылка Размер: 1.46 GB Раздают: 368 Качают: 25 Добавлен: 2021-05-28 17:53:58
Турист (2021) WEB-DLRip-AVC от Files-x | iTunes

Оригинальное название: Турист
Год выхода: 2021
Жанр: Боевик
Режиссер: Андрей Щербинин
В ролях: Алексей Шевченков, Александр Барановский, Владимир Петров (VIII), Евгений Терских, Флавия-Гертруда Мбайабе, Уилфред Уильямс, Сергей Воробьёв (IV), Георгий Болонев, Алексей Удальцов, Глеб Темнов, Денис Волков (II), Сергей Гарусов, Сергей Павлов (II), Олег Поддубный, Алексей Червяков, Константин Бараев, Павел Ткаченко, Алексей Румянцев, Павел Богомолов, Сергей Бледных, Евгений Антонов

О сериале: В Центральноафриканской Республике (ЦАР) работают российские инструкторы, обучающие армию этой страны по просьбе местного правительства. Россия отправляет несколько сотен военных и тяжёлую технику в ЦАР, чтобы поддержать правительство. На базу высаживаются новички, среди них – бывший сотрудник полиции, 27-летний Гриша Дмитриев. Тем временем, ситуация в республике обостряется в преддверии президентских и парламентских выборов...

Страна: Россия
Студия: Производство ООО "Паритет Фильм"
Продолжительность: 01:39:09
Перевод: Не требуется | iTunes

Файл
Кодек: h.264
Качество: WEB-DLRip-AVC
Видео: MPEG-4 AVC, ~ 1909 Кбит/с, 1024x432, 24 кадр/с
Аудио: AC3, 2 ch, 192 Кбит/с
Язык: Русский
Субтитры: Нет

Релиз:


[+] Инфо-файл

General
Unique ID                                : 230393485211503256511970962694779296127 (0xAD542BD4D0C62FC4992EC486C015D97F)
Complete name                            : F:Turist.(2021).WEB-DLRip.(AVC).by.Серый1779.Files-x.mkv
Format                                   : Matroska
Format version                           : Version 2
File size                                : 1.46 GiB
Duration                                 : 1 h 39 min
Overall bit rate                         : 2 101 kb/s
Encoded date                             : UTC 2021-05-25 04:31:08
Writing application                      : mkvmerge v7.8.0 ('River Man') 32bit built on Apr  3 2015 12:11:22
Writing library                          : libebml v1.3.1 + libmatroska v1.4.2

Video
ID                                       : 1
Format                                   : AVC
Format/Info                              : Advanced Video Codec
Format profile                           : High@L4.1
Format settings                          : CABAC / 10 Ref Frames
Format settings, CABAC                   : Yes
Format settings, RefFrames               : 10 frames
Codec ID                                 : V_MPEG4/ISO/AVC
Duration                                 : 1 h 39 min
Bit rate                                 : 1 909 kb/s
Width                                    : 1 024 pixels
Height                                   : 432 pixels
Display aspect ratio                     : 2.40:1
Frame rate mode                          : Constant
Frame rate                               : 24.000 FPS
Color space                              : YUV
Chroma subsampling                       : 4:2:0
Bit depth                                : 8 bits
Scan type                                : Progressive
Bits/(Pixel*Frame)                       : 0.180
Stream size                              : 1.29 GiB (89%)
Writing library                          : x264 core 146 r2538 121396c
Encoding settings                        : cabac=1 / ref=10 / deblock=1:-2:-1 / analyse=0x3:0x133 / me=umh / subme=11 / psy=1 / psy_rd=1.00:0.08 / mixed_ref=1 / me_range=32 / chroma_me=1 / trellis=2 / 8x8dct=1 / cqm=0 / deadzone=21,11 / fast_pskip=0 / chroma_qp_offset=-3 / threads=18 / lookahead_threads=3 / sliced_threads=0 / nr=0 / decimate=1 / interlaced=0 / bluray_compat=0 / constrained_intra=0 / bframes=11 / b_pyramid=2 / b_adapt=2 / b_bias=0 / direct=1 / weightb=1 / open_gop=0 / weightp=2 / keyint=250 / keyint_min=23 / scenecut=40 / intra_refresh=0 / rc=2pass / mbtree=0 / bitrate=1909 / ratetol=1.0 / qcomp=0.60 / qpmin=0 / qpmax=69 / qpstep=4 / cplxblur=20.0 / qblur=0.5 / ip_ratio=1.40 / pb_ratio=1.30 / aq=2:1.00
Default                                  : Yes
Forced                                   : No
Color range                              : Limited
Color primaries                          : BT.709
Transfer characteristics                 : BT.709
Matrix coefficients                      : BT.709

Audio
ID                                       : 2
Format                                   : AC-3
Format/Info                              : Audio Coding 3
Format settings, Endianness              : Big
Codec ID                                 : A_AC3
Duration                                 : 1 h 39 min
Bit rate mode                            : Constant
Bit rate                                 : 192 kb/s
Channel(s)                               : 2 channels
Channel positions                        : Front: L R
Sampling rate                            : 48.0 kHz
Frame rate                               : 31.250 FPS (1536 SPF)
Bit depth                                : 16 bits
Compression mode                         : Lossy
Stream size                              : 136 MiB (9%)
Service kind                             : Complete Main
Default                                  : Yes
Forced                                   : No




Скриншоты:
[+] Всего файлов в раздаче - 1:

Показать еще раздачи по запросу турист:
2021-06-29 U Турист (2021) WEB-DLRip-AVC 2.61 GB ↑ 165 ↓ 19
2021-06-28 U Турист (2021) WEB-DL 1080p от EniaHD 4.55 GB ↑ 142 ↓ 58
2021-05-30 U Турист (2021) WEB-DLRip от Files-x | iTunes 1.46 GB ↑ 47 ↓ 27
2021-05-26 U Турист (2021) WEB-DLRip-AVC | iTunes 1.41 GB ↑ 342 ↓ 59
2021-05-25 U Турист (2021) WEB-DLRip от ExKinoRay | iTunes 745.36 MB ↑ 326 ↓ 29
2021-05-25 U Турист (2021) WEB-DLRip от ELEKTRI4KA | iTunes 1.46 GB ↑ 332 ↓ 28
2021-05-25 U Турист (2021) WEB-DL 720p от ELEKTRI4KA | iTunes 2.98 GB ↑ 114 ↓ 23

Отзывы
Зарегистрируйтесь чтобы добавить комментарий.
Программа byTorrent
  Описание byTorrent
Обратная связь
Copyleft ©