↑↓torrent.by
Поиск
Логин: Регистрация
Пароль: Восстановить пароль

Кайт - Девочка убийца / Kite (1998) BDRip 1080p от Deadmauvlad | Director's Cut | P | Лицензия

Скачать kayt-devochka-ubiyca-kite-1998-bdrip-1080p-ot-deadmauvlad-director-s-cut-p-licenziya.torrent
U Магнитная ссылка Размер: 3.40 GB Раздают: 62 Качают: 19 Добавлен: 2020-02-03 11:06:58
Кайт - Девочка убийца / Kite (1998) BDRip 1080p от Deadmauvlad | Director's Cut | P | Лицензия

Информация о фильме
Название: Кайт - Девочка убийца
Оригинальное название: Kite
Год выпуска: 1998
Жанр:  драма, приключения, хентай
Режиссер: Ясуоми Умэцу
В ролях: Конами Ёсида, Кинрю Аримото, Косукэ Окано, Тацуо Матоба, Хироси Айда, Нобуюки Такано, Джеки Сильвестр, Дуглас Картрайт

О фильме: Несколько лет назад девочка Сава лишилась родителей. Её опекуном становится бескомпромиссный и циничный полицейский Акаи. Акаи — педофил, убийца и садист. Но у него есть на то свои корыстные цели: он воспитывает элиту наемных убийц, очищающих общество от мрази, перед которой закон и правосудие бессильны. Вскоре юная очаровательная Сава становится его невидимым и смертоносным оружием. Для неё нет невыполнимых заданий - мгновенно превращаясь из примерной школьницы в хладнокровного киллера, она начиняет разрывными пулями тела своих жертв, у которых нет ни шанса на выживание. Сава всегда работает одна, поэтому появление нового напарника, ловкого и бесстрашного Обури, резко меняет ее жизнь - внезапно у нее появляется друг и новые, неведомые чувства…

Страна: Япония
Студия: ARMS
Продолжительность: 00:51:25
Перевод: Профессиональный многоголосый закадровый (MC Entertainment) (Лицензия)

Тип Релиза:  Версия Без Цензуры ! (Запрещено для лиц младше 18 лет (Присутствуют сцены хентая и откровенные кровавые сцены) )
Качество видео: BDRip 1080p [Publisher: KITTY MEDIA]
Формат видео: MKV
Видео: AVC, 1440x1080 (4:3), 23.976 fps, 8 500 kb/s (0.228 bit/pixel)
Аудио 1: AC-3, 48.0 kHz, 2 ch, 192 kb/s, CBR (Russian
Аудио 2: AC-3, 48.0 kHz, 6 ch, 384 kb/s, CBR (English)
Аудио 3: AC-3, 48.0 kHz, 6 ch, 384 kb/s, CBR (Japanese)

Релиз / Автор рипа: Deadmauvlad >_<


[+] Медиаинфо
Общее
Уникальный идентификатор                 : 175845734275251199589215178408541155747 (0x844AA811E9FF38A69BB0F7C71EE1F1A3)
Полное имя                               : E:coder[Deadmau- RAWS] Kite.1998.Uncensored.Version.RUS.JAP.BDRip.1080p.Deadmauvlad.mkv
Формат                                   : Matroska
Версия формата                           : Version 2
Размер файла                             : 3,40 Гбайт
Продолжительность                        : 51 м. 25 с.
Общий поток                              : 9461 Кбит/сек
Название фильма                          : [Deadmau- RAWS] Kite.1998.Без.Цензуры.RUS.JAP.BDRip.1080p.Deadmauvlad
Дата кодирования                         : UTC 2020-01-02 12:33:34
Программа кодирования                    : mkvmerge v7.8.0 ('River Man') 32bit built on Apr  3 2015 12:11:22
Библиотека кодирования                   : libebml v1.3.1 + libmatroska v1.4.2

Видео
Идентификатор                            : 1
Формат                                   : AVC
Формат/Информация                        : Advanced Video Codec
Профиль формата                          : High@L4.1
Настройки формата                        : CABAC / 5 Ref Frames
Параметр CABAC формата                   : Да
Параметр RefFrames формата               : 5 кадров
Идентификатор кодека                     : V_MPEG4/ISO/AVC
Продолжительность                        : 51 м. 25 с.
Битрейт                                  : 8500 Кбит/сек
Ширина                                   : 1440 пикселей
Высота                                   : 1080 пикселей
Соотношение сторон                       : 4:3
Режим частоты кадров                     : Постоянный
Частота кадров                           : 23,976 (24000/1001) кадра/сек
Цветовое пространство                    : YUV
Субдискретизация насыщенности            : 4:2:0
Битовая глубина                          : 8 бит
Тип развёртки                            : Прогрессивная
Бит/(Пиксели*Кадры)                      : 0.228
Размер потока                            : 2,99 Гбайт (88%)
Заголовок                                : Encoder by Deadmauvlad
Библиотека кодирования                   : x264 core 146 r2538 121396c
Настройки программы                      : cabac=1 / ref=5 / deblock=1:-1:-1 / analyse=0x3:0x113 / me=umh / subme=10 / psy=1 / psy_rd=1.25:0.75 / mixed_ref=0 / me_range=48 / chroma_me=1 / trellis=2 / 8x8dct=1 / cqm=0 / deadzone=21,11 / fast_pskip=1 / chroma_qp_offset=-4 / threads=18 / lookahead_threads=4 / sliced_threads=0 / nr=0 / decimate=1 / interlaced=0 / bluray_compat=0 / constrained_intra=0 / bframes=12 / b_pyramid=2 / b_adapt=2 / b_bias=0 / direct=1 / weightb=1 / open_gop=0 / weightp=2 / keyint=240 / keyint_min=23 / scenecut=40 / intra_refresh=0 / rc_lookahead=60 / rc=2pass / mbtree=1 / bitrate=8500 / ratetol=1.0 / qcomp=0.60 / qpmin=1 / qpmax=69 / qpstep=4 / cplxblur=20.0 / qblur=0.5 / ip_ratio=1.40 / aq=1:1.50
Язык                                     : Russian
Default                                  : Да
Forced                                   : Нет
Цветовой диапазон                        : Limited
Основные цвета                           : BT.709
Характеристики трансфера                 : BT.709
Коэффициенты матрицы                     : BT.709

Аудио #1
Идентификатор                            : 2
Формат                                   : AC-3
Формат/Информация                        : Audio Coding 3
Коммерческое название                    : Dolby Digital
Идентификатор кодека                     : A_AC3
Продолжительность                        : 51 м. 25 с.
Вид битрейта                             : Постоянный
Битрейт                                  : 192 Кбит/сек
Каналы                                   : 2 канала
ChannelLayout                            : L R
Частота                                  : 48,0 КГц
Частота кадров                           : 31,250 кадров/сек (1536 SPF)
Метод сжатия                             : С потерями
Размер потока                            : 70,6 Мбайт (2%)
Заголовок                                : Rus MVO R5 [MC Entertainment]
Язык                                     : Russian
Default                                  : Нет
Forced                                   : Нет

Аудио #2
Идентификатор                            : 3
Формат                                   : AC-3
Формат/Информация                        : Audio Coding 3
Коммерческое название                    : Dolby Digital
Идентификатор кодека                     : A_AC3
Продолжительность                        : 51 м. 25 с.
Вид битрейта                             : Постоянный
Битрейт                                  : 384 Кбит/сек
Каналы                                   : 6 каналов
ChannelLayout                            : L R C LFE Ls Rs
Частота                                  : 48,0 КГц
Частота кадров                           : 31,250 кадров/сек (1536 SPF)
Метод сжатия                             : С потерями
Задержка видео                           : 83 мс.
Размер потока                            : 141 Мбайт (4%)
Заголовок                                : ENGLISH DUB
Язык                                     : English
Default                                  : Нет
Forced                                   : Нет

Аудио #3
Идентификатор                            : 4
Формат                                   : AC-3
Формат/Информация                        : Audio Coding 3
Коммерческое название                    : Dolby Digital
Идентификатор кодека                     : A_AC3
Продолжительность                        : 51 м. 25 с.
Вид битрейта                             : Постоянный
Битрейт                                  : 384 Кбит/сек
Каналы                                   : 6 каналов
ChannelLayout                            : L R C LFE Ls Rs
Частота                                  : 48,0 КГц
Частота кадров                           : 31,250 кадров/сек (1536 SPF)
Метод сжатия                             : С потерями
Задержка видео                           : 83 мс.
Размер потока                            : 141 Мбайт (4%)
Заголовок                                : Original
Язык                                     : Japanese
Default                                  : Нет
Forced                                   : Нет



[+] X264 LoG

[code]x264 [info]: frame I:671   Avg QP:16.17  size:184751
x264 [info]: frame P:16725 Avg QP:18.33  size: 85051
x264 [info]: frame B:56578 Avg QP:18.32  size: 30601
x264 [info]: consecutive B-frames:  3.3%  3.1%  9.5% 16.9% 13.0% 46.7%  3.1%  0.7%  0.6%  0.3%  0.8%  1.3%  0.6%
x264 [info]: mb I  I16..4:  5.9% 83.1% 11.0%
x264 [info]: mb P  I16..4:  1.3% 35.9%  2.4%  P16..4: 37.0% 10.8%  7.6%  0.0%  0.0%    skip: 5.0%
x264 [info]: mb B  I16..4:  0.1%  4.4%  0.1%  B16..8: 31.4%  7.0%  2.4%  direct:13.8%  skip:40.7%  L0:39.3% L1:38.2% BI:22.5%
x264 [info]: 8x8 transform intra:91.4% inter:31.2%
x264 [info]: coded y,uvDC,uvAC intra: 97.1% 83.8% 64.5% inter: 29.0% 28.7% 5.4%
x264 [info]: i16 v,h,dc,p: 24% 13% 28% 35%
x264 [info]: i8 v,h,dc,ddl,ddr,vr,hd,vl,hu: 12%  8% 21%  8%  9% 10%  8% 11% 13%
x264 [info]: i4 v,h,dc,ddl,ddr,vr,hd,vl,hu: 12%  8%  4% 10% 14% 15% 13% 12% 12%
x264 [info]: i8c dc,h,v,p: 39% 28% 21% 11%
x264 [info]: Weighted P-Frames: Y:10.3% UV:3.1%
x264 [info]: ref P L0: 37.2%  6.5% 27.0% 11.9% 14.5%  2.9%  0.1%
x264 [info]: ref B L0: 72.9% 18.9%  5.3%  2.9%
x264 [info]: ref B L1: 94.3%  5.7%
x264 [info]: kb/s:8499.08[/code]



[+] Сравнение с псевдо BD от Urotsuki
comparison
Urotsuki (IS Shit quality (DVD up cover) ........................ Deadmau- RAWS (True BDRip)
сравнение ссылка  http://www.framecompare.com/image-compare/screenshotcomparison/D6KYWNNX

ПруфыСкриншот



Скриншоты:
[+] Всего файлов в раздаче - 1:
[Deadmau- RAWS] Kite.1998.Uncensored.Version.RUS.JAP.BDRip.1080p.Deadmauvlad.mkv3.40 GB

Отзывы
pablo
Deadmauvlad Спасибо братан, хотя давно уже стянул с другого ресурса, но все равно спасибо, единственного человека кто выкладывает старый добрый аниме олдскул в HD.

Зарегистрируйтесь чтобы добавить комментарий.
Обратная связь
Copyleft ©