↑↓torrent.by
Поиск
Логин: Регистрация
Пароль: Восстановить пароль

Фиксики против кработов (2019) WEB-DLRip

Скачать fiksiki-protiv-krabotov-2019-web-dlrip.torrent
U Магнитная ссылка Размер: 741.68 MB Раздают: 51 Качают: 17 Добавлен: 2020-02-05 05:38:11
Фиксики против кработов (2019) WEB-DLRip

Информация
Название: Фиксики против кработов
Год выхода: 2019
Жанр: приключения, музыка, мультфильм
Режиссер: Василий Бедошвили, Олег Ужинов, Иван Пшонкин
В ролях: Дмитрий Назаров, Нонна Гришаева, Лариса Брохман, Диомид Виноградов, Дмитрий Сыендук, Прохор Чеховской, Инна Королёва, Лилия Шайхитдинова, Варвара Обидор, Пётр Иващенко

Описание: Фиксики — маленькие добрые человечки, которые живут в машинах и приборах и заботятся о технике. От людей фиксики скрываются: в мире есть всего несколько счастливчиков, которые общаются с ними. В лаборатории профессора Чудакова находится школа фиксиков, о которой знают только мальчик ДимДимыч и его подруга Катя. Но однажды там появляются неуловимые существа. Они шпионят за фиксиками и угрожают их тайне. Кто такие эти странные роботы-кработы, что им нужно и кто стоит за ними? Оказывается, у Чудакова есть давний недоброжелатель, и профессора вызывают на дуэль, чтобы свести старые счеты! Новые друзья — Мега и Альт — придут на помощь нашим фиксикам, и все попадут в невероятный водоворот приключений!

Страна: Россия
Студия: Blitz Films, Аэроплан
Продолжительность: 01:25:57
Перевод: Не требуется

Файл
Формат: AVI
Качество: WEB-DLRip
Видео:688x288 (2.39:1), 24.000 fps, XviD build 73 ~1068 kbps avg, 0.22 bit/pixel
Аудио:48 kHz, MPEG Layer 3, 2 ch, ~128.00 kbps avg
Субтитры: Отсутствуют


[+] MediaInfo:
Формат                                   : AVI
Формат/Информация                        : Audio Video Interleave
Размер файла                             : 742 Мбайт
Продолжительность                        : 1 ч. 25 м.
Общий поток                              : 1206 Кбит/сек
Название фильма                          : Фиксики против кработов_2019_WEB-DLRip
Программа кодирования                    : VirtualDubMod 1.5.10.3 | (build 2550/release)

Видео
Идентификатор                            : 0
Формат                                   : MPEG-4 Visual
Профиль формата                          : Advanced Simple@L5
Настройки формата                        : BVOP1 / Custom Matrix
Параметр BVOP формата                    : 1
Параметр QPel формата                    : Нет
Параметр GMC формата                     : Без точки перехода
Параметр матрицы формата                 : Выборочная
Идентификатор кодека                     : XVID
Идентификатор кодека/Подсказка           : XviD
Продолжительность                        : 1 ч. 25 м.
Битрейт                                  : 1069 Кбит/сек
Ширина                                   : 688 пикселей
Высота                                   : 288 пикселей
Соотношение сторон                       : 2,40:1
Частота кадров                           : 24,000 кадра/сек
Цветовое пространство                    : YUV
Субдискретизация насыщенности            : 4:2:0
Битовая глубина                          : 8 бит
Тип развёртки                            : Прогрессивная
Метод сжатия                             : С потерями
Бит/(Пиксели*Кадры)                      : 0.225
Размер потока                            : 657 Мбайт (89%)
Библиотека кодирования                   : XviD 73

Аудио
Идентификатор                            : 1
Формат                                   : MPEG Audio
Версия формата                           : Version 1
Профиль формата                          : Layer 3
Идентификатор кодека                     : 55
Идентификатор кодека/Подсказка           : MP3
Продолжительность                        : 1 ч. 25 м.
Вид битрейта                             : Постоянный
Битрейт                                  : 128 Кбит/сек
Каналы                                   : 2 канала
Частота                                  : 48,0 КГц
Частота кадров                           : 41,667 кадра/сек (1152 SPF)
Метод сжатия                             : С потерями
Размер потока                            : 78,7 Мбайт (11%)
Выравнивание                             : Соединение по промежуткам
Продолжительность промежутка             : 42  мс. (1,00 видеокадр)
Время предзагрузки промежутка            : 504  мс.
Библиотека кодирования                   : LAME3.99r
Настройки программы                      : -m s -V 4 -q 2 -lowpass 17 -b 128



Скриншоты:
[+] Всего файлов в раздаче - 1:
Фиксики против кработов_2019_WEB-DLRip.avi741.68 MB

Похожие раздачи по запросу - фиксики:
2020-02-05 U Фиксики против кработов (2019) WEB-DLRip-AVC от OlLanDGroup 1.46 GB ↑ 433 ↓ 146
2020-02-04 U Фиксики против кработов (2019) WEB-DLRip от Dalemake 1.46 GB ↑ 415 ↓ 64

Отзывы
Зарегистрируйтесь чтобы добавить комментарий.
Обратная связь
Copyleft ©