↑↓torrent.by
Поиск
Логин: Регистрация
Пароль: Восстановить пароль

Мертвые не умирают / The Dead Don't Die (2019) BDRip 720p от ExKinoRay | Яроцкий

Скачать mertvye-ne-umirayut-the-dead-don-t-die-2019-bdrip-720p-ot-exkinoray-yarockiy.torrent
U Магнитная ссылка Размер: 3.45 GB Раздают: 18 Качают: 13 Добавлен: 2021-09-21 08:44:29
Мертвые не умирают / The Dead Don't Die (2019) BDRip 720p от ExKinoRay | Яроцкий

Название: Мертвые не умирают
Оригинальное название: The Dead Don't Die
Год выпуска: 2019
Жанр:  Ужасы, фэнтези, комедия
Режиссер: Джим Джармуш
В ролях: Адам Драйвер, Билл Мюррей, Клоэ Севиньи, Тильда Суинтон, Стив Бушеми, Селена Гомес, RZA, Алисса Мария Апп, Карл Арчилези, Моника Эйрс, Дэнни Гловер, Игги Поп, Том Уэйтс, Эстер Балинт

О фильме:  В захолустном американском городке что-то пошло не так. День никак не заканчивается, домашние животные убегают в лес, телефоны не работают, а по радио играет одна и та же песня. Вскоре выяснится, что эти аномалии происходят по всей земле, и ядовитый лунный свет воскресит давно почивших. Помощник шерифа уверен — грядёт нашествие зомби, и ничем хорошим это не кончится.

Страна: США, Швеция
Студия: Animal Kingdom, Film i Väst
Продолжительность: 01:44:28
Перевод: Авторский (закадровый)| Михаил Яроцкий

Формат: MKV
Качество: BDRip 720p
Видео: MPEG-4 AVC, 4100 Kbps, 1280x720 (16:9), 23.976 кадр/с
Аудио : 48 kHz, AC3, 5.1, 640 Kbps | RUS |
Субтитры: Русские (Forced, full (Enigma))

Присутствует ненормативная лексика

Релиз:

Автор релиза:


[+] ОтчетМедиаИнфо

General
Unique ID                                : 238507305187847089056822381616146576023 (0xB36ED60AC1C745408EC165496EBA7297)
Complete name                            : F:The.Dead.Dont.Die.2019.AVO.BDRip.720p.ExKinoRay.mkv
Format                                   : Matroska
Format version                           : Version 2
File size                                : 3.45 GiB
Duration                                 : 1 h 44 min
Overall bit rate                         : 4 734 kb/s
Movie name                               : The Dead Dont Die 2019 from ExKinoRay
Encoded date                             : UTC 2019-12-15 20:02:45
Writing application                      : mkvmerge v5.6.0 ('Kenya Kane') built on May 27 2012 16:44:04
Writing library                          : libebml v1.2.3 + libmatroska v1.3.0

Video
ID                                       : 1
Format                                   : AVC
Format/Info                              : Advanced Video Codec
Format profile                           : High@L4.1
Format settings, CABAC                   : Yes
Format settings, ReFrames                : 9 frames
Codec ID                                 : V_MPEG4/ISO/AVC
Duration                                 : 1 h 44 min
Bit rate                                 : 4 100 kb/s
Width                                    : 1 280 pixels
Height                                   : 720 pixels
Display aspect ratio                     : 16:9
Frame rate mode                          : Constant
Frame rate                               : 23.976 (23976/1000) FPS
Color space                              : YUV
Chroma subsampling                       : 4:2:0
Bit depth                                : 8 bits
Scan type                                : Progressive
Bits/(Pixel*Frame)                       : 0.186
Stream size                              : 2.92 GiB (84%)
Title                                    : Enigma
Writing library                          : x264 core 152 r2851 ba24899
Encoding settings                        : cabac=1 / ref=9 / deblock=1:-2:-2 / analyse=0x3:0x113 / me=umh / subme=11 / psy=1 / psy_rd=1.10:0.20 / mixed_ref=1 / me_range=32 / chroma_me=1 / trellis=2 / 8x8dct=1 / cqm=0 / deadzone=21,11 / fast_pskip=0 / chroma_qp_offset=-3 / threads=12 / lookahead_threads=3 / sliced_threads=0 / nr=0 / decimate=0 / interlaced=0 / bluray_compat=0 / constrained_intra=0 / bframes=10 / b_pyramid=2 / b_adapt=2 / b_bias=0 / direct=3 / weightb=1 / open_gop=0 / weightp=2 / keyint=240 / keyint_min=23 / scenecut=40 / intra_refresh=0 / rc=2pass / mbtree=0 / bitrate=4100 / ratetol=1.0 / qcomp=0.65 / qpmin=0 / qpmax=51 / qpstep=4 / cplxblur=20.0 / qblur=0.5 / ip_ratio=1.25 / pb_ratio=1.30 / aq=1:1.00
Language                                 : English
Default                                  : Yes
Forced                                   : No
Color range                              : Limited
Color primaries                          : BT.709
Transfer characteristics                 : BT.709
Matrix coefficients                      : BT.709

Audio
ID                                       : 2
Format                                   : AC-3
Format/Info                              : Audio Coding 3
Mode extension                           : CM (complete main)
Format settings, Endianness              : Big
Codec ID                                 : A_AC3
Duration                                 : 1 h 44 min
Bit rate mode                            : Constant
Bit rate                                 : 640 kb/s
Channel(s)                               : 6 channels
Channel positions                        : Front: L C R, Side: L R, LFE
Sampling rate                            : 48.0 kHz
Frame rate                               : 31.250 FPS (1536 spf)
Compression mode                         : Lossy
Stream size                              : 478 MiB (14%)
Title                                    : AVO (Yarotskiy)
Language                                 : Russian
Default                                  : Yes
Forced                                   : No

Text #1
ID                                       : 3
Format                                   : UTF-8
Codec ID                                 : S_TEXT/UTF8
Codec ID/Info                            : UTF-8 Plain Text
Title                                    : Forced (Enigma)
Language                                 : Russian
Default                                  : Yes
Forced                                   : No

Text #2
ID                                       : 4
Format                                   : UTF-8
Codec ID                                 : S_TEXT/UTF8
Codec ID/Info                            : UTF-8 Plain Text
Title                                    : Full (Enigma)
Language                                 : Russian
Default                                  : No
Forced                                   : No

Menu
00:00:00.000                             : en:Chapter 01
00:05:01.384                             : en:Chapter 02
00:10:04.437                             : en:Chapter 03
00:17:04.148                             : en:Chapter 04
00:22:28.847                             : en:Chapter 05
00:28:04.724                             : en:Chapter 06
00:31:36.269                             : en:Chapter 07
00:37:56.649                             : en:Chapter 08
00:43:22.641                             : en:Chapter 09
00:50:53.050                             : en:Chapter 10
00:57:04.504                             : en:Chapter 11
01:01:16.964                             : en:Chapter 12
01:06:41.580                             : en:Chapter 13
01:09:20.823                             : en:Chapter 14
01:14:47.774                             : en:Chapter 15
01:18:47.681                             : en:Chapter 16
01:23:50.442                             : en:Chapter 17
01:28:10.201                             : en:Chapter 18
01:33:15.798                             : en:Chapter 19
01:39:11.487                             : en:Chapter 20




Скриншоты:
[+] Всего файлов в раздаче - 1:
The.Dead.Dont.Die.2019.AVO.BDRip.720p.ExKinoRay.mkv3.45 GB

Похожие раздачи по запросу - мертвые:
2021-09-20 U Мертвые как я / Dead Like Me [s01-02] (2003 - 2004) HDTVRip l КПК l D 5.71 GB ↑ 20 ↓ 13

Отзывы
Зарегистрируйтесь чтобы добавить комментарий.
Загрузите программу
  byTorrent
Обратная связь
Copyleft ©