↑↓torrent.by
Поиск
Логин: Регистрация
Пароль: Восстановить пароль

Шестнадцать + [01 из 10] (2021) WEBRip 720p

Скачать shestnadcat-01-iz-10-2021-webrip-720p.torrent
U Магнитная ссылка Размер: 341.07 MB Раздают: 20 Качают: 4 Добавлен: 2021-09-21 08:44:54
Шестнадцать + [01 из 10] (2021) WEBRip 720p

Название: Шестнадцать +
Год выхода: 2021
Жанр: Драма, мелодрама, музыка
Режиссер: Ирина Бас, Анастасия Ледкова, Владимир Бек, Александра Лупашко, Александра Кармаева, Светлана Самошина, Ярослав Лебедев, Ксения Ратушная, Кирилл Кузин
В ролях: Виктория Толстоганова, Виталий Щербина, Кристина Кучеренко, Данил Стеклов, Илларион Маров, Мария Милешкина, Никита Ковтунов, Дина Губайдуллина, Григорий Верник, Ростислав Бершауэр, Глафира Голуева, Егор Гуськов, Полина Шелепова, Даниил Киселев, Кристина Корбут, Андрей Грызлов, Евгений Егоров, Мила Ершова, Марина Гришакова, Ульяна Молдованова, Алёна Митрошина, Асель Турдубаева, Давид Сократян, Екатерина Круглова, Любовь Ярлыкова, Илья Хвостиков, Максим Михеев, Людмила Гамуряк, Марк Эйдельштейн

О фильме:
Музыкальный киноальманах расскажет о том, что волнует современных подростков в период взросления: первая любовь, ревность, зависть, первый сексуальный опыт, принятие своего тела и сексуальности, сепарация от взрослых и попытки доказать свою значимость, одиночество. Каждая из коротких драм и мелодрам в проекте вдохновлена популярной песней.

Страна: Россия
Студия: ООО «Пайнери» по заказу ООО «МТС Медиа»
Продолжительность: 1 х ~ 00:15:00
Язык: Русский

Премьера: 21 сентября 2021 года (KION)
Примечание: Без рекламы
Версия 18+

Файл
Формат: MKV
Качество: WEBRip 720p
Видео: MPEG-4 AVC, ~ 3840 Кбит/с, 1280x720
Аудио #01: AC3, 2 ch, 192 Кбит/с | C цензурой
Аудио #02: AC3, 2 ch, 192 Кбит/с | Без цензуры 18+
Субтитры: Отсутствуют
Семпл


[+] MI
Общее
Уникальный идентификатор                 : 60433924602763829436696030287888471046 (0x2D7726877DB9AC93DEF104385BF15406)
Полное имя                               : D:Shestnadcat.+.2021.WEB-DL.720pShestnadcat.+.E01.2021.WEB-DL.720p.mkv
Формат                                   : Matroska
Версия формата                           : Version 4
Размер файла                             : 341 Мбайт
Продолжительность                        : 12 м. 50 с.
Режим общего битрейта                    : Постоянный
Общий поток                              : 3 716 Кбит/сек
Название фильма                          : Shestnadcat.+.E01.2021.WEB-DL.720p
Дата кодирования                         : UTC 2021-09-20 21:20:15
Программа кодирования                    : mkvmerge v60.0.0 ('Are We Copies?') 64-bit
Библиотека кодирования                   : libebml v1.4.2 + libmatroska v1.6.4
Attachments                              : poster.jpg

Видео
Идентификатор                            : 1
Формат                                   : AVC
Формат/Информация                        : Advanced Video Codec
Профиль формата                          : Baseline@L3.1
Настройки формата                        : 2 Ref Frames
Параметр CABAC формата                   : Нет
Параметр RefFrames формата               : 2 кадра
Параметр GOP формата                     : M=1, N=25
Идентификатор кодека                     : V_MPEG4/ISO/AVC
Продолжительность                        : 12 м. 50 с.
Вид битрейта                             : Постоянный
Битрейт                                  : 3 328 Кбит/сек
Номинальный битрейт                      : 3 840 Кбит/сек
Ширина                                   : 1 280 пикселей
Высота                                   : 720 пикселей
Соотношение сторон                       : 16:9
Режим частоты кадров                     : Постоянный
Частота кадров                           : 25,000 кадров/сек
Цветовое пространство                    : YUV
Субдискретизация насыщенности            : 4:2:0
Битовая глубина                          : 8 бит
Тип развёртки                            : Прогрессивная
Бит/(Пиксели*Кадры)                      : 0.144
Размер потока                            : 306 Мбайт (90%)
Default                                  : Да
Forced                                   : Нет

Аудио #1
Идентификатор                            : 2
Формат                                   : AC-3
Формат/Информация                        : Audio Coding 3
Коммерческое название                    : Dolby Digital
Идентификатор кодека                     : A_AC3
Продолжительность                        : 12 м. 49 с.
Вид битрейта                             : Постоянный
Битрейт                                  : 192 Кбит/сек
Каналы                                   : 2 канала
Channel layout                           : L R
Частота                                  : 48,0 КГц
Частота кадров                           : 31,250 кадров/сек (1536 SPF)
Метод сжатия                             : С потерями
Размер потока                            : 17,6 Мбайт (5%)
Заголовок                                : Censor
Язык                                     : Russian
Service kind                             : Complete Main
Default                                  : Да
Forced                                   : Нет

Аудио #2
Идентификатор                            : 3
Формат                                   : AC-3
Формат/Информация                        : Audio Coding 3
Коммерческое название                    : Dolby Digital
Идентификатор кодека                     : A_AC3
Продолжительность                        : 12 м. 49 с.
Вид битрейта                             : Постоянный
Битрейт                                  : 192 Кбит/сек
Каналы                                   : 2 канала
Channel layout                           : L R
Частота                                  : 48,0 КГц
Частота кадров                           : 31,250 кадров/сек (1536 SPF)
Метод сжатия                             : С потерями
Размер потока                            : 17,6 Мбайт (5%)
Заголовок                                : 18+
Язык                                     : Russian
Service kind                             : Complete Main
Default                                  : Нет
Forced                                   : Нет



Скриншоты:
[+] Всего файлов в раздаче - 1:
Shestnadcat.+.E01.2021.WEB-DL.720p.mkv341.07 MB

Показать еще раздачи по запросу шестнадцать:
2021-09-29 U Шестнадцать + [01-09 из 10] (2021) WEBRip 2.06 GB ↑ 36 ↓ 16
2021-09-28 U Шестнадцать + [01-08 из 10] (2021) WEBRip 1080p 5.13 GB ↑ 40 ↓ 22
2021-09-28 U Шестнадцать + [01-08 из 10] (2021) WEBRip 720p 3.31 GB ↑ 44 ↓ 23
2021-09-27 U Шестнадцать + [01-07 из 10] (2021) WEBRip 1.60 GB ↑ 9 ↓ 10
2021-09-23 U Шестнадцать + [01-02 из 10] (2021) WEBRip 720p 882.23 MB ↑ 27 ↓ 1
2021-09-22 U Шестнадцать + [01-02 из 10] (2021) WEBRip 1080p 1.35 GB ↑ 60 ↓ 13
2021-09-22 U Шестнадцать + [01-02 из 10] (2021) WEBRip 473.38 MB ↑ 50 ↓ 11

Отзывы
Зарегистрируйтесь чтобы добавить комментарий.
Загрузите программу
  byTorrent
Обратная связь
Copyleft ©