↑↓torrent.by
Поиск
Логин: Регистрация
Пароль: Восстановить пароль

Город тайн / Засуха / The Dry (2020) WEB-DL-HEVC 2160p | 4K | HDR | D, P | iTunes

Скачать gorod-tayn-zasuha-the-dry-2020-web-dl-hevc-2160p-4k-hdr-d-p-itunes.torrent
U Магнитная ссылка Размер: 13.69 GB Раздают: 19 Качают: 17 Добавлен: 2021-09-21 08:44:59
Город тайн / Засуха / The Dry (2020) WEB-DL-HEVC 2160p | 4K | HDR | D, P | iTunes

Название: Город тайн / Засуха
Оригинальное название: The Dry
Год выхода: 2020
Жанр: Триллер, драма, криминал, детектив

Режиссер: Роберт Коннолли

В ролях: Эрик Бана, Женевьев О`Рейли, Кейр О`Доннелл, Джеймс Фрешвилл, Мэттью Нэйбл, Сэм Корлетт, Джереми Линдсэй Тейлор, Рени Лим, Эдди Бару, Джон Полсон

О фильме:
Аарон Фальк, сделавший блестящую карьеру в федеральной полиции, спустя 20 лет приезжает в родной город на похороны своего когда-то лучшего друга Люка. Факты указывают на то, что тот убил жену и сына, а потом застрелился сам, но знавшие Люка не могут в это поверить. Неохотно принявшись за расследование, Фальк вскоре обнаруживает связь между этим делом и давним событием — смертью 17-летней Элли, их общей с Люком подруги.

Страна: Австралия, США
Продолжительность: 01:57:27
Перевод(ы):
#1: Профессиональный дублированный | iTunes
#2: Профессиональный (многоголосый, закадровый) | HDRezka Studio

Файл
Кодек: H.265
Качество: WEB-DL 2160p
Видео: MPEG-H HEVC HDR Video, 3840x1600 (2.40:1), 24.000 fps, 14.8 Mb/s, 10 bit
Аудио 1: AC3, 48.0 kHz, 6 ch, 384 kb/s |  RUS [DUB, iTunes]
Аудио 2: AC3, 48.0 kHz, 6 ch, 448 kb/s |   RUS [MVO, HDRezka Studio] | (Цензура)
Аудио 3: AC3, 48.0 kHz, 6 ch, 448 kb/s |   RUS [MVO, HDRezka Studio] | (Без цензуры)
Аудио 4: AC3, 48.0 kHz, 6 ch, 640 kb/s |  ENG [Оригинал]
Субтитры: Русские (Forced), английские (Full)

Семпл


[+] MI
Общее
Уникальный идентификатор                 : 242523910194707059320480019759961972062 (0xB67467F557CD4236915100422C939D5E)
Полное имя                               : The.Dry.(2020).WEB-DL.2160p.HDR.mkv
Формат                                   : Matroska
Версия формата                           : Version 4 / Version 2
Размер файла                             : 13,7 Гбайт
Продолжительность                        : 1 ч. 57 м.
Общий поток                              : 16,7 Мбит/сек
Дата кодирования                         : UTC 2021-09-20 19:16:33
Программа кодирования                    : mkvmerge v8.3.0 ('Over the Horizon') 64bit
Библиотека кодирования                   : libebml v1.3.1 + libmatroska v1.4.2

Видео
Идентификатор                            : 1
Формат                                   : HEVC
Формат/Информация                        : High Efficiency Video Coding
Профиль формата                          : Main 10@L5@Main
HDR format                               : SMPTE ST 2094 App 4, Version 1, HDR10+ Profile B compatible
Идентификатор кодека                     : V_MPEGH/ISO/HEVC
Продолжительность                        : 1 ч. 57 м.
Битрейт                                  : 14,8 Мбит/сек
Ширина                                   : 3 840 пикселей
Высота                                   : 1 600 пикселей
Соотношение сторон                       : 2,40:1
Режим частоты кадров                     : Постоянный
Частота кадров                           : 24,000 кадра/сек
Цветовое пространство                    : YUV
Субдискретизация насыщенности            : 4:2:0
Битовая глубина                          : 10 бит
Бит/(Пиксели*Кадры)                      : 0.100
Размер потока                            : 12,1 Гбайт (88%)
Default                                  : Да
Forced                                   : Нет
Цветовой диапазон                        : Limited
Основные цвета                           : BT.2020
Характеристики трансфера                 : PQ
Коэффициенты матрицы                     : BT.2020 non-constant
Mastering display color primaries        : Display P3
Mastering display luminance              : min: 0.0050 cd/m2, max: 1000 cd/m2
Maximum Content Light Level              : 1006 cd/m2
Maximum Frame-Average Light Level        : 168 cd/m2

Аудио #1
Идентификатор                            : 2
Формат                                   : AC-3
Формат/Информация                        : Audio Coding 3
Коммерческое название                    : Dolby Digital
Идентификатор кодека                     : A_AC3
Продолжительность                        : 1 ч. 57 м.
Вид битрейта                             : Постоянный
Битрейт                                  : 384 Кбит/сек
Каналы                                   : 6 каналов
Channel layout                           : L R C LFE Ls Rs
Частота                                  : 48,0 КГц
Частота кадров                           : 31,250 кадров/сек (1536 SPF)
Метод сжатия                             : С потерями
Размер потока                            : 323 Мбайт (2%)
Заголовок                                : DUB (iTunes)
Язык                                     : Russian
Service kind                             : Complete Main
Default                                  : Да
Forced                                   : Нет

Аудио #2
Идентификатор                            : 3
Формат                                   : AC-3
Формат/Информация                        : Audio Coding 3
Коммерческое название                    : Dolby Digital
Идентификатор кодека                     : A_AC3
Продолжительность                        : 1 ч. 57 м.
Вид битрейта                             : Постоянный
Битрейт                                  : 448 Кбит/сек
Каналы                                   : 6 каналов
Channel layout                           : L R C LFE Ls Rs
Частота                                  : 48,0 КГц
Частота кадров                           : 31,250 кадров/сек (1536 SPF)
Метод сжатия                             : С потерями
Размер потока                            : 376 Мбайт (3%)
Заголовок                                : MVO (HDRezka Studio / censored)
Язык                                     : Russian
Service kind                             : Complete Main
Default                                  : Нет
Forced                                   : Нет

Аудио #3
Идентификатор                            : 4
Формат                                   : AC-3
Формат/Информация                        : Audio Coding 3
Коммерческое название                    : Dolby Digital
Идентификатор кодека                     : A_AC3
Продолжительность                        : 1 ч. 57 м.
Вид битрейта                             : Постоянный
Битрейт                                  : 448 Кбит/сек
Каналы                                   : 6 каналов
Channel layout                           : L R C LFE Ls Rs
Частота                                  : 48,0 КГц
Частота кадров                           : 31,250 кадров/сек (1536 SPF)
Метод сжатия                             : С потерями
Размер потока                            : 376 Мбайт (3%)
Заголовок                                : MVO (HDRezka Studio / uncensored)
Язык                                     : Russian
Service kind                             : Complete Main
Default                                  : Нет
Forced                                   : Нет

Аудио #4
Идентификатор                            : 5
Формат                                   : AC-3
Формат/Информация                        : Audio Coding 3
Коммерческое название                    : Dolby Digital
Идентификатор кодека                     : A_AC3
Продолжительность                        : 1 ч. 57 м.
Вид битрейта                             : Постоянный
Битрейт                                  : 640 Кбит/сек
Каналы                                   : 6 каналов
Channel layout                           : L R C LFE Ls Rs
Частота                                  : 48,0 КГц
Частота кадров                           : 31,250 кадров/сек (1536 SPF)
Метод сжатия                             : С потерями
Размер потока                            : 538 Мбайт (4%)
Заголовок                                : Original
Язык                                     : English
Service kind                             : Complete Main
Default                                  : Нет
Forced                                   : Нет

Текст #1
Идентификатор                            : 6
Формат                                   : UTF-8
Идентификатор кодека                     : S_TEXT/UTF8
Идентификатор кодека/Информация          : UTF-8 Plain Text
Продолжительность                        : 1 ч. 52 м.
Битрейт                                  : 3 бит/сек
Count of elements                        : 54
Размер потока                            : 2,95 Кбайт (0%)
Заголовок                                : Forced
Язык                                     : Russian
Default                                  : Да
Forced                                   : Нет

Текст #2
Идентификатор                            : 7
Формат                                   : UTF-8
Идентификатор кодека                     : S_TEXT/UTF8
Идентификатор кодека/Информация          : UTF-8 Plain Text
Продолжительность                        : 1 ч. 50 м.
Битрейт                                  : 47 бит/сек
Count of elements                        : 1329
Размер потока                            : 38,2 Кбайт (0%)
Заголовок                                : Full
Язык                                     : English
Default                                  : Нет
Forced                                   : Нет

Меню
00:00:00.000                             : en:Chapter 01
00:10:18.125                             : en:Chapter 02
00:18:41.250                             : en:Chapter 03
00:27:51.458                             : en:Chapter 04
00:37:40.208                             : en:Chapter 05
00:45:57.000                             : en:Chapter 06
00:55:04.042                             : en:Chapter 07
01:03:10.875                             : en:Chapter 08
01:15:37.542                             : en:Chapter 09
01:24:29.583                             : en:Chapter 10
01:32:51.208                             : en:Chapter 11
01:45:40.667                             : en:Chapter 12



Скриншоты:
[+] Всего файлов в раздаче - 1:
The.Dry.(2020).WEB-DL.2160p.HDR.mkv13.69 GB

Показать еще раздачи по запросу город:
2021-09-06 U Последнее дело Ламарки / Город у моря / City by the Sea (2002) DVDRip-AVC | P, P2 | Fullscreen 2.10 GB ↑ 31 ↓ 7
2021-08-21 U Горный город / Mountain Town (2021) WEBRip 2160p 219.58 MB ↑ 58 ↓ 7
2021-08-19 U Город тайн / Засуха / The Dry (2020) BDRip-AVC | iTunes 2.71 GB ↑ 10 ↓ 13
2021-08-19 U Город тайн / Засуха / The Dry (2020) BDRip 1080p от ELEKTRI4KA | iTunes 12.79 GB ↑ 23 ↓ 34
2021-08-19 U Город тайн / Засуха / The Dry (2020) HDRip от ELEKTRI4KA | iTunes 1.46 GB ↑ 49 ↓ 7
2021-08-13 U Город головорезов / Cut Throat City (2020) BDRip от MegaPeer | iTunes 1.46 GB ↑ 57 ↓ 18
2021-08-11 U Город головорезов / Cut Throat City (2020) HDRip от ELEKTRI4KA | iTunes 1.46 GB ↑ 112 ↓ 17

Отзывы
Зарегистрируйтесь чтобы добавить комментарий.
Загрузите программу
  byTorrent
Обратная связь
Copyleft ©