↑↓torrent.by
Поиск
Логин: Регистрация
Пароль: Восстановить пароль

Форсаж 9 / Fast & Furious 9 (2020) WEBRip 1080p | Трейлер №1

Скачать forsazh-9-fast-furious-2020-webrip-1080p-treyler-1.torrent
U Магнитная ссылка Размер: 1,018.01 MB Раздают: 217 Качают: 27 Добавлен: 2020-02-08 05:52:59
Форсаж 9 / Fast & Furious 9 (2020) WEBRip 1080p | Трейлер №1

«Fast Family Forever»

Год выпуска: 2020
Производство: США / Universal Pictures, Original Film, Perfect Storm Entertainment, Roth/Kirschenbaum Films
Жанр:  Боевик, триллер, криминал, приключения

Режиссер: Джастин Лин
Продюсеры: Вин Дизель, Джеффри Киршенбаум, Джастин Лин
Актеры: Вин Дизель, Мишель Родригес, Тайриз Гибсон, Лудакрис, Джордана Брюстер, Натали Эммануэль, Джон Сина, Хелен Миррен, Шарлиз Терон, Майкл Рукер

Описание:
Сайфер заручается поддержкой Джейкоба, младшего брата Доминика, чтобы отомстить Дому и его команде.

Перевод: Дублированный
Субтитры: Нет
Дата мировой премьеры: 20 мая 2020
Дата российской премьеры: 21 мая 2020, «UPI»

 
Продолжительность: 00:03:56
Качество видео: WEBRip 1080pВидео: H264, 1920x800, 32,0 Мбит/сек
Аудио 1: MP3 2.0, 128 Кбит/сек [Русский - дублированный]
Аудио 2: DTS-HD MA 5.1, 4524 Кбит/сек [Английский - оригинал]


[+] MediaInfo:
Общее
Уникальный идентификатор                 : 200246849226268672377714283166731025666 (0x96A623EBF8FEB24224795F3EF84F3D02)
Полное имя                               : D:TorrentsFast & Furious 9 (2020) WEBRip [1080p] Trailer №1.mkv
Формат                                   : Matroska
Версия формата                           : Version 4
Размер файла                             : 1018 Мбайт
Продолжительность                        : 3 м. 56 с.
Режим общего битрейта                    : Переменный
Общий поток                              : 36,2 Мбит/сек
Дата кодирования                         : UTC 2020-02-07 15:10:13
Программа кодирования                    : mkvmerge v43.0.0 ('The Quartermaster') 64-bit
Библиотека кодирования                   : libebml v1.3.10 + libmatroska v1.5.2

Видео
Идентификатор                            : 1
Формат                                   : AVC
Формат/Информация                        : Advanced Video Codec
Профиль формата                          : Main@L4.1
Настройки формата                        : CABAC / 2 Ref Frames
Параметр CABAC формата                   : Да
Параметр RefFrames формата               : 2 кадра
Параметр GOP формата                     : M=3, N=24
Идентификатор кодека                     : V_MPEG4/ISO/AVC
Продолжительность                        : 3 м. 53 с.
Вид битрейта                             : Постоянный
Битрейт                                  : 32,0 Мбит/сек
Ширина                                   : 1920 пикселей
Высота                                   : 800 пикселей
Соотношение сторон                       : 2,40:1
Режим частоты кадров                     : Постоянный
Частота кадров                           : 24,000 кадра/сек
Цветовое пространство                    : YUV
Субдискретизация насыщенности            : 4:2:0
Битовая глубина                          : 8 бит
Тип развёртки                            : Прогрессивная
Бит/(Пиксели*Кадры)                      : 0.868
Размер потока                            : 887 Мбайт (87%)
Язык                                     : English
Default                                  : Да
Forced                                   : Нет

Аудио #1
Идентификатор                            : 2
Формат                                   : MPEG Audio
Версия формата                           : Version 1
Профиль формата                          : Layer 3
Настройки формата                        : Joint stereo / MS Stereo
Идентификатор кодека                     : A_MPEG/L3
Идентификатор кодека/Подсказка           : MP3
Продолжительность                        : 3 м. 49 с.
Вид битрейта                             : Постоянный
Битрейт                                  : 128 Кбит/сек
Каналы                                   : 2 канала
Частота                                  : 48,0 КГц
Частота кадров                           : 41,667 кадра/сек (1152 SPF)
Метод сжатия                             : С потерями
Размер потока                            : 3,49 Мбайт (0%)
Заголовок                                : Dub
Язык                                     : Russian
Default                                  : Да
Forced                                   : Нет

Аудио #2
Идентификатор                            : 3
Формат                                   : DTS XLL
Формат/Информация                        : Digital Theater Systems
Коммерческое название                    : DTS-HD Master Audio
Идентификатор кодека                     : A_DTS
Продолжительность                        : 3 м. 56 с.
Вид битрейта                             : Переменный
Битрейт                                  : 4524 Кбит/сек
Каналы                                   : 6 каналов
ChannelLayout                            : C L R Ls Rs LFE
Частота                                  : 48,0 КГц
Частота кадров                           : 93,750 кадра/сек (512 SPF)
Битовая глубина                          : 24 бит
Метод сжатия                             : Без потерь
Размер потока                            : 127 Мбайт (13%)
Язык                                     : English
Default                                  : Нет
Forced                                   : Нет




Скриншоты:
[+] Всего файлов в раздаче - 1:
Fast & Furious 9 (2020) WEBRip [1080p] Trailer №1.mkv1,018.01 MB

Похожие раздачи по запросу - форсаж:
2020-09-14 U Форсаж. Диабло / Diablo (2019) BDRip от ExKinoRay | D 1.46 GB ↑ 172 ↓ 54
2019-12-29 U Форсаж: Шпионские гонки / Fast & Furious: Spy Racers [S01] (2019) WEBRip | IdeaFilm 2.59 GB ↑ 77 ↓ 14
2019-09-28 U Форсаж: Хоббс и Шоу / Fast & Furious Presents: Hobbs & Shaw (2019) WEB-DL 720p от селезень | iTunes 4.18 GB ↑ 598 ↓ 188
2019-09-28 U Форсаж: Хоббс и Шоу / Fast & Furious Presents: Hobbs & Shaw (2019) WEB-DLRip от MegaPeer | iTunes 1.47 GB ↑ 1002 ↓ 359
2013-11-03 U Форсаж 5 / Fast Five (2011) HDRip | Лицензия 11К2.05 GB ↑ 1453 ↓ 56

Отзывы
Зарегистрируйтесь чтобы добавить комментарий.
Загрузите программу
  uTorrent.exe
Обратная связь
Copyleft ©