↑↓torrent.by
Поиск
Логин: Регистрация
Пароль: Восстановить пароль

Потерянное звено / Missing Link (2019) BDRip-AVC от OlLanDGroup | D, P | iTunes

Скачать poteryannoe-zveno-missing-link-2019-bdrip-avc-ot-ollandgroup-d-p-itunes.torrent
U Магнитная ссылка Размер: 1.85 GB Раздают: 75 Качают: 19 Добавлен: 2020-02-08 15:45:06
Потерянное звено / Missing Link (2019) BDRip-AVC от OlLanDGroup | D, P  | iTunes

Название: Потерянное звено
Оригинальное название: Missing Link
Год выпуска: 2019
Жанр:  Мультфильм, фэнтези, комедия, приключения, семейный
Выпущено: США, Канада, Laika Entertainment
Режиссер: Крис Батлер
В ролях: Хью Джекман, Дэвид Уоллиамс, Стивен Фрай, Мэтт Лукас, Зак Галифианакис, Тимоти Олифант, Зои Салдана, Эмма Томпсон, Амрита Ачария, Чинг Валдес-Аран

О фильме: Бесстрашный натуралист и исследователь Лайонел Фрост поставил перед собой задачу рассказать миру о существовании разных созданий, о которых говорят только в легендах. Его новым открытием становится Линк, так называемое «недостающее звено», связывающее человечество с его предками по эволюционной лестнице.

Качество: BDRip (AVC)
Видео: MPEG-4 AVC, 1775 Кбит/с, 1024x426, 23.976 кадр/с
Аудио: Русский (AC3, 3 ch, 384 Кбит/с), (AC3, 2 ch, 192 Кбит/с),  английский (AC3, 6 ch, 448 Кбит/с)
Размер: 1.85 ГБ
Продолжительность: 01:34:26
Перевод: Дублированный, профессиональный многоголосый
Субтитры: Русские (форс.), английские

Озвучивание - Дублированное (iTunes), Профессиональное многоголосое (HDRezka Studio)
Сохранены оригинальные чаптеры как на Blu-Ray.

Релиз:  Rip by:


[+] Инфо-файл

Общее
Уникальный идентификатор                 : 210160369443271498054315401561541824366 (0x9E1B6A347D57EAE1AD4045D61EA5CF6E)
Полное имя                               : D:ЗагрузкиMissing.Link.2019.BDRip(AVC).OlLanDGroup.mkv
Формат                                   : Matroska
Версия формата                           : Version 4 / Version 2
Размер файла                             : 1,85 Гбайт
Продолжительность                        : 1 ч. 34 м.
Общий поток                              : 2801 Кбит/сек
Название фильма                          : Missing.Link.2019   #TorpedoUK#
Дата кодирования                         : UTC 2020-02-07 19:06:00
Программа кодирования                    : mkvmerge v6.5.0 ('Isn't she lovely') built on Oct 20 2013 12:50:05
Библиотека кодирования                   : libebml v1.3.0 + libmatroska v1.4.1

Видео
Идентификатор                            : 1
Формат                                   : AVC
Формат/Информация                        : Advanced Video Codec
Профиль формата                          : High@L4.1
Настройки формата                        : CABAC / 10 Ref Frames
Параметр CABAC формата                   : Да
Параметр ReFrames формата                : 10 кадров
Идентификатор кодека                     : V_MPEG4/ISO/AVC
Продолжительность                        : 1 ч. 34 м.
Битрейт                                  : 1775 Кбит/сек
Ширина                                   : 1024 пикселя
Высота                                   : 426 пикселей
Соотношение сторон                       : 2,40:1
Режим частоты кадров                     : Постоянный
Частота кадров                           : 23,976 (24000/1001) кадра/сек
Цветовое пространство                    : YUV
Субдискретизация насыщенности            : 4:2:0
Битовая глубина                          : 8 бит
Тип развёртки                            : Прогрессивная
Бит/(Пиксели*Кадры)                      : 0.170
Размер потока                            : 1,14 Гбайт (61%)
Библиотека кодирования                   : x264 core 146 r2538 121396c
Настройки программы                      : cabac=1 / ref=10 / deblock=1:-3:-3 / analyse=0x3:0x113 / me=umh / subme=11 / psy=1 / psy_rd=1.00:0.03 / mixed_ref=1 / me_range=48 / chroma_me=1 / trellis=2 / 8x8dct=1 / cqm=0 / deadzone=21,11 / fast_pskip=1 / chroma_qp_offset=-3 / threads=6 / lookahead_threads=1 / sliced_threads=0 / nr=0 / decimate=1 / interlaced=0 / bluray_compat=0 / constrained_intra=0 / bframes=11 / b_pyramid=2 / b_adapt=2 / b_bias=0 / direct=3 / weightb=1 / open_gop=0 / weightp=2 / keyint=240 / keyint_min=23 / scenecut=40 / intra_refresh=0 / rc_lookahead=40 / rc=2pass / mbtree=0 / bitrate=1775 / ratetol=1.0 / qcomp=0.60 / qpmin=0 / qpmax=69 / qpstep=4 / cplxblur=20.0 / qblur=0.5 / vbv_maxrate=50000 / vbv_bufsize=62500 / nal_hrd=none / filler=0 / ip_ratio=1.40 / pb_ratio=1.30 / aq=1:1.00
Язык                                     : English
Default                                  : Да
Forced                                   : Нет

Аудио #1
Идентификатор                            : 2
Формат                                   : AC-3
Формат/Информация                        : Audio Coding 3
Идентификатор кодека                     : A_AC3
Продолжительность                        : 1 ч. 34 м.
Вид битрейта                             : Постоянный
Битрейт                                  : 384 Кбит/сек
Каналы                                   : 6 каналов
Расположение каналов                     : Front: L C R, Side: L R, LFE
Частота                                  : 48,0 КГц
Частота кадров                           : 31,250 кадров/сек (1536 SPF)
Битовая глубина                          : 16 бит
Метод сжатия                             : С потерями
Размер потока                            : 259 Мбайт (14%)
Заголовок                                : Дублированный (iTunes)
Язык                                     : Russian
Service kind                             : Complete Main
Default                                  : Да
Forced                                   : Нет

Аудио #2
Идентификатор                            : 3
Формат                                   : AC-3
Формат/Информация                        : Audio Coding 3
Идентификатор кодека                     : A_AC3
Продолжительность                        : 1 ч. 34 м.
Вид битрейта                             : Постоянный
Битрейт                                  : 192 Кбит/сек
Каналы                                   : 2 канала
Расположение каналов                     : Front: L R
Частота                                  : 48,0 КГц
Частота кадров                           : 31,250 кадров/сек (1536 SPF)
Битовая глубина                          : 16 бит
Метод сжатия                             : С потерями
Размер потока                            : 130 Мбайт (7%)
Заголовок                                : MVO [HDRezka Studio]
Язык                                     : Russian
Service kind                             : Complete Main
Default                                  : Нет
Forced                                   : Нет

Аудио #3
Идентификатор                            : 4
Формат                                   : AC-3
Формат/Информация                        : Audio Coding 3
Идентификатор кодека                     : A_AC3
Продолжительность                        : 1 ч. 34 м.
Вид битрейта                             : Постоянный
Битрейт                                  : 448 Кбит/сек
Каналы                                   : 6 каналов
Расположение каналов                     : Front: L C R, Side: L R, LFE
Частота                                  : 48,0 КГц
Частота кадров                           : 31,250 кадров/сек (1536 SPF)
Битовая глубина                          : 16 бит
Метод сжатия                             : С потерями
Размер потока                            : 303 Мбайт (16%)
Заголовок                                : [Original]
Язык                                     : English
Service kind                             : Complete Main
Default                                  : Нет
Forced                                   : Нет

Текст #1
Идентификатор                            : 5
Формат                                   : UTF-8
Идентификатор кодека                     : S_TEXT/UTF8
Идентификатор кодека/Информация          : UTF-8 Plain Text
Заголовок                                : Forced
Язык                                     : Russian
Default                                  : Да
Forced                                   : Нет

Текст #2
Идентификатор                            : 6
Формат                                   : UTF-8
Идентификатор кодека                     : S_TEXT/UTF8
Идентификатор кодека/Информация          : UTF-8 Plain Text
Заголовок                                : Forced
Язык                                     : English
Default                                  : Нет
Forced                                   : Нет

Текст #3
Идентификатор                            : 7
Формат                                   : UTF-8
Идентификатор кодека                     : S_TEXT/UTF8
Идентификатор кодека/Информация          : UTF-8 Plain Text
Заголовок                                : Full
Язык                                     : English
Default                                  : Нет
Forced                                   : Нет

Меню
00:00:00.000                             : en:Chapter 01
00:05:12.520                             : en:Chapter 02
00:08:53.616                             : en:Chapter 03
00:12:29.206                             : en:Chapter 04
00:15:35.851                             : en:Chapter 05
00:20:18.550                             : en:Chapter 06
00:24:26.840                             : en:Chapter 07
00:29:55.126                             : en:Chapter 08
00:33:14.659                             : en:Chapter 09
00:36:40.948                             : en:Chapter 10
00:40:33.389                             : en:Chapter 11
00:43:45.164                             : en:Chapter 12
00:47:24.299                             : en:Chapter 13
00:52:50.876                             : en:Chapter 14
00:55:14.477                             : en:Chapter 15
00:58:51.903                             : en:Chapter 16
00:59:59.721                             : en:Chapter 17
01:02:54.729                             : en:Chapter 18
01:05:15.494                             : en:Chapter 19
01:08:17.176                             : en:Chapter 20
01:11:00.339                             : en:Chapter 21
01:13:20.437                             : en:Chapter 22
01:21:51.197                             : en:Chapter 23
01:24:48.625                             : en:Chapter 24




Скриншоты:
[+] Всего файлов в раздаче - 1:
Missing.Link.2019.BDRip(AVC).OlLanDGroup.mkv1.85 GB

Похожие раздачи по запросу - потерянное:
2020-02-09 U Потерянное звено / Missing Link (2019) BDRip 720p от OlLanDGroup | D, P | iTunes 3.30 GB ↑ 41 ↓ 12
2020-02-08 U Потерянное звено / Missing Link (2019) BDRip 1080p от OlLanDGroup | D, P | iTunes 5.76 GB ↑ 68 ↓ 15
2020-02-07 U Потерянное звено / Missing Link (2019) BDRip от MegaPeer | iTunes 1.42 GB ↑ 93 ↓ 59
2019-07-21 U Потерянное звено / Missing Link (2019) BDRip 1080p от OlLanDGroup | P 5.51 GB ↑ 172 ↓ 68
2019-07-21 U Потерянное звено / Missing Link (2019) BDRip-AVC от OlLanDGroup | P 1.59 GB ↑ 321 ↓ 42
2018-09-15 U Потерянное счастье (2018) WEB-DLRip от Files-x 1.36 GB ↑ 363 ↓ 96

Отзывы
Зарегистрируйтесь чтобы добавить комментарий.
Обратная связь
Copyleft ©