↑↓torrent.by
Поиск
Логин: Регистрация
Пароль: Восстановить пароль

Иван Царевич и Серый Волк 4 (2019) WEB-DLRip-AVC

Скачать ivan-carevich-i-seryy-volk-4-2019-web-dlrip-avc.torrent
U Магнитная ссылка Размер: 1.46 GB Раздают: 418 Качают: 61 Добавлен: 2020-02-09 06:02:02
Иван Царевич и Серый Волк 4 (2019) WEB-DLRip-AVC

Название: Иван Царевич и Серый Волк 4
Год выхода: 2019
Жанр: Мультфильм, приключения, семейный
Режиссер: Дарина Шмидт
Роли озвучивают: Никита Ефремов, Иван Охлобыстин, Михаил Боярский, Равшана Куркова, Сергей Волчков, Мария Цветкова-Овсянникова, Александр Боярский, Олег Куликович, Анатолий Петров, Михаил Хрусталёв

О фильме:
Зима в этом году в тридевятом царстве случилась особенно долгая и холодная. Прямо, как в прошлом году. И как в позапрошлом. Но, вот, пришла весна. Точнее — почти пришла. С вьюгой, морозами и снегом. Как обычно. И совсем было загрустили наши герои — Иван, Василиса, Серый Волк и Царь-батюшка, если бы вместе с почти-весной, не пришла новость — в Трисемнадцатом царстве пройдет ежегодный всесказочный конкурс песни. В прошлом году там победил хомяк Жорж, а чей голос окажется круче на этот раз? Царь решил, что Тридевятое царство будет представлять Кот-ученый. Не один все же мультфильм прошли вместе, да и все равно он про книги забыл, орет, точнее поет целыми днями на крышах, как и положено коту в марте. И, конечно, вся компания во главе с Иваном и Волком отправляется поддержать пушистого певца. Ведь свои нужны рядом. А то шоу-бизнес — настоящий серпентарий, и кто знает, какие темные силы стоят за коварными соперниками и их стремлением стать звездой.

Страна: Россия
Студия: Кинокомпания CTB, Анимационная студия Мельница
Продолжительность: 01:28:23
Перевод: Не требуется

Файл
Качество: WEB-DLRip-AVC
Формат: MKV
Кодек: MPEG-4 AVC
Видео: 1024x572 (16:9), 23,976 fps, MPEG-4 AVC ~ 2169 Кbps avg, 0.154 bit/pixel
Аудио: AC3, 48 kHz, 2 ch, ~192.00 kbps avg | русский

Субтитры: Отсутствуют


[+] Инфо-файл
Общее
Уникальный идентификатор                 : 86753870620422019643854578307590381799 (0x4144300E8B7ACC1966A0027724B9E0E7)
Полное имя                               : Ivan.Carevich.i.seryi.volk.4.2019.WEB-DLRip.AVC.mkv
Формат                                   : Matroska
Версия формата                           : Version 4
Размер файла                             : 1,46 Гбайт
Продолжительность                        : 1 ч. 28 м.
Общий поток                              : 2362 Кбит/сек
Дата кодирования                         : UTC 2020-02-09 00:39:36
Программа кодирования                    : mkvmerge v41.0.0 ('Smarra') 64-bit
Библиотека кодирования                   : libebml v1.3.9 + libmatroska v1.5.2

Видео
Идентификатор                            : 1
Формат                                   : AVC
Формат/Информация                        : Advanced Video Codec
Профиль формата                          : High@L4.1
Настройки формата                        : CABAC / 12 Ref Frames
Параметр CABAC формата                   : Да
Параметр RefFrames формата               : 12 кадров
Идентификатор кодека                     : V_MPEG4/ISO/AVC
Продолжительность                        : 1 ч. 28 м.
Битрейт                                  : 2169 Кбит/сек
Ширина                                   : 1024 пикселя
Высота                                   : 572 пикселя
Соотношение сторон                       : 16:9
Режим частоты кадров                     : Постоянный
Частота кадров                           : 23,976 (23976/1000) кадра/сек
Цветовое пространство                    : YUV
Субдискретизация насыщенности            : 4:2:0
Битовая глубина                          : 8 бит
Тип развёртки                            : Прогрессивная
Бит/(Пиксели*Кадры)                      : 0.154
Размер потока                            : 1,34 Гбайт (92%)
Заголовок                                : #stillet
Библиотека кодирования                   : x264 core 152 r2851bm ba24899
Настройки программы                      : cabac=1 / ref=12 / deblock=1:-3:-3 / analyse=0x3:0x113 / me=umh / subme=11 / psy=1 / psy_rd=1.00:0.15 / mixed_ref=1 / me_range=32 / chroma_me=1 / trellis=2 / 8x8dct=1 / cqm=0 / deadzone=21,11 / fast_pskip=0 / chroma_qp_offset=-3 / threads=8 / lookahead_threads=3 / sliced_threads=0 / nr=0 / decimate=0 / interlaced=0 / bluray_compat=0 / constrained_intra=0 / bframes=13 / b_pyramid=2 / b_adapt=2 / b_bias=0 / direct=3 / weightb=1 / open_gop=0 / weightp=2 / keyint=240 / keyint_min=23 / scenecut=40 / intra_refresh=0 / rc=2pass / mbtree=0 / bitrate=2169 / ratetol=1.0 / qcomp=0.60 / qpmin=0 / qpmax=69 / qpstep=4 / cplxblur=20.0 / qblur=0.5 / ip_ratio=1.40 / pb_ratio=1.30 / aq=1:1.00
Язык                                     : English
Default                                  : Да
Forced                                   : Нет

Аудио
Идентификатор                            : 2
Формат                                   : AC-3
Формат/Информация                        : Audio Coding 3
Коммерческое название                    : Dolby Digital
Идентификатор кодека                     : A_AC3
Продолжительность                        : 1 ч. 28 м.
Вид битрейта                             : Постоянный
Битрейт                                  : 192 Кбит/сек
Каналы                                   : 2 канала
ChannelLayout                            : L R
Частота                                  : 48,0 КГц
Частота кадров                           : 31,250 кадров/сек (1536 SPF)
Метод сжатия                             : С потерями
Размер потока                            : 121 Мбайт (8%)
Язык                                     : Russian
Default                                  : Да
Forced                                   : Нет




Скриншоты:
[+] Всего файлов в раздаче - 1:
Ivan.Carevich.i.seryi.volk.4.2019.WEB-DLRip.AVC.mkv1.46 GB

Показать еще раздачи по запросу иван:
2020-03-02 U Иван Царевич и Серый Волк 4 (2019) WEBRip от GeneralFilm 746.59 MB ↑ 107 ↓ 16
2020-02-29 U Иван Царевич и Серый Волк 4 (2019) WEBRip 1080p 2.31 GB ↑ 354 ↓ 93
2020-02-14 U Иван Царевич и Серый Волк 4 (2019) WEB-DLRip 742.90 MB ↑ 196 ↓ 21
2020-02-08 U Иван Царевич и Серый Волк 4 (2019) WEB-DLRip от Dalemake 1.46 GB ↑ 1101 ↓ 346
2019-09-21 U Иван Кучин - 50 лучших песен [Большая коллекция шансона] (2013) MP3 1К447.62 MB ↑ 19952 ↓ 4012
2019-09-21 U Иван Кучин - 50 лучших песен (Большая коллекция шансона) (2013) Compilation [FLAC|Lossless|WEB-DL|tracks] 1.26 GB ↑ 6480 ↓ 1013
2019-09-18 U Иван Охлобыстин - Улисс (2019) MP3 353.42 MB ↑ 107 ↓ 8

Отзывы
Зарегистрируйтесь чтобы добавить комментарий.
Обратная связь
Copyleft ©