↑↓torrent.by
Поиск
Логин: Регистрация
Пароль: Восстановить пароль

Проект Power / Project Power (2020) WEB-DLRip-AVC от ExKinoRay | D | Пифагор

Скачать proekt-power-project-2020-web-dlrip-avc-ot-exkinoray-d-pifagor.torrent
U Магнитная ссылка Размер: 2.30 GB Раздают: 97 Качают: 29 Добавлен: 2021-09-21 08:45:23
Проект Power / Project Power (2020) WEB-DLRip-AVC от ExKinoRay | D | Пифагор

Название: Проект Power
Оригинальное название: Project Power
Год выхода: 2020
Жанр: Боевик, фантастика, триллер
Режиссер: Генри Джуст, Эриель Шульман
В ролях: Джейми Фокс, Джозеф Гордон-Левитт, Доминик Фишбэк, Родриго Санторо, Кортни Б. Вэнс, Эми Ландекер, Тейт Флетчер, Аллен Мальдонадо, Андрин Уорд-Хэммонд

О фильме:  В Новом Орлеане появляется странная пилюля, способная подарить суперспособности любому желающему. За появлением пилюли на улицах города стоит некая таинственная организация. Со стороны может показаться, что их изобретение — невероятный дар, но далеко не все выживают после получения суперспособностей. Невозможно предугадать, какие силы получит человек: кто-то становится невидимым или супербыстрым, но некоторых ждёт смертельный исход. Вдобавок ко всему способности приводят к новой волне криминальных разборок. Местный коп вместе с бывшим военным и девочкой, торговавшей наркотиками, берутся выследить людей, создавших пилюлю.

Страна: США
Студия: NetFlix, Screen Arcade, Supermarché
Продолжительность: 01:53:16
Перевод: Дублированный | Netflix

Формат: MKV
Качество: WEB-DLRip-AVC
Видео: MPEG-4 AVC, 1024x512 (2.35:1), 2461 kbps, 24.000 fps
Аудио : 48 kHz, AC3, 5.1, 448 Kbps | Dub | RUS |
Субтитры: Русские (форсированные, полные)

Релиз:

Автор релиза:


[+] ОтчетМедиаИнфо

General
Unique ID                                : 238154270869175253439989069434967784421 (0xB32AD81B33A40F8DA776E32E510F7BE5)
Complete name                            : D:Project.Power.2020.NF.WEB-DL.AVC.ExKinoRay.mkv
Format                                   : Matroska
Format version                           : Version 2
File size                                : 2.30 GiB
Duration                                 : 1 h 53 min
Overall bit rate                         : 2 910 kb/s
Movie name                               : Project Power 2020 from ExKinoRay
Encoded date                             : UTC 2020-08-16 03:59:55
Writing application                      : mkvmerge v5.6.0 ('Kenya Kane') built on May 27 2012 16:44:04
Writing library                          : libebml v1.2.3 + libmatroska v1.3.0

Video
ID                                       : 1
Format                                   : AVC
Format/Info                              : Advanced Video Codec
Format profile                           : High@L4.1
Format settings, CABAC                   : Yes
Format settings, ReFrames                : 11 frames
Codec ID                                 : V_MPEG4/ISO/AVC
Duration                                 : 1 h 53 min
Bit rate                                 : 2 461 kb/s
Width                                    : 1 024 pixels
Height                                   : 512 pixels
Display aspect ratio                     : 2.000
Frame rate mode                          : Constant
Frame rate                               : 24.000 FPS
Color space                              : YUV
Chroma subsampling                       : 4:2:0
Bit depth                                : 8 bits
Scan type                                : Progressive
Bits/(Pixel*Frame)                       : 0.196
Stream size                              : 1.90 GiB (83%)
Title                                    : Enigma
Writing library                          : x264 core 152 r2851 ba24899
Encoding settings                        : cabac=1 / ref=11 / deblock=1:-2:-2 / analyse=0x3:0x113 / me=umh / subme=10 / psy=1 / psy_rd=1.00:0.05 / mixed_ref=1 / me_range=32 / chroma_me=1 / trellis=2 / 8x8dct=1 / cqm=0 / deadzone=21,11 / fast_pskip=0 / chroma_qp_offset=-3 / threads=12 / lookahead_threads=3 / sliced_threads=0 / nr=0 / decimate=0 / interlaced=0 / bluray_compat=0 / constrained_intra=0 / bframes=10 / b_pyramid=2 / b_adapt=2 / b_bias=0 / direct=3 / weightb=1 / open_gop=0 / weightp=2 / keyint=240 / keyint_min=24 / scenecut=40 / intra_refresh=0 / rc=2pass / mbtree=0 / bitrate=2461 / ratetol=1.0 / qcomp=0.60 / qpmin=0 / qpmax=51 / qpstep=4 / cplxblur=20.0 / qblur=0.5 / ip_ratio=1.40 / pb_ratio=1.30 / aq=1:1.00
Language                                 : English
Default                                  : Yes
Forced                                   : No
Color range                              : Limited
Color primaries                          : BT.709
Transfer characteristics                 : BT.709
Matrix coefficients                      : BT.709

Audio
ID                                       : 2
Format                                   : AC-3
Format/Info                              : Audio Coding 3
Mode extension                           : CM (complete main)
Format settings, Endianness              : Big
Codec ID                                 : A_AC3
Duration                                 : 1 h 53 min
Bit rate mode                            : Constant
Bit rate                                 : 448 kb/s
Channel(s)                               : 6 channels
Channel positions                        : Front: L C R, Side: L R, LFE
Sampling rate                            : 48.0 kHz
Frame rate                               : 31.250 FPS (1536 spf)
Compression mode                         : Lossy
Stream size                              : 363 MiB (15%)
Title                                    : Dub
Language                                 : Russian
Default                                  : Yes
Forced                                   : No

Text #1
ID                                       : 3
Format                                   : UTF-8
Codec ID                                 : S_TEXT/UTF8
Codec ID/Info                            : UTF-8 Plain Text
Title                                    : Forced
Language                                 : Russian
Default                                  : Yes
Forced                                   : No

Text #2
ID                                       : 4
Format                                   : UTF-8
Codec ID                                 : S_TEXT/UTF8
Codec ID/Info                            : UTF-8 Plain Text
Title                                    : Full
Language                                 : Russian
Default                                  : No
Forced                                   : No




Скриншоты:
[+] Всего файлов в раздаче - 1:
Project.Power.2020.NF.WEB-DL.AVC.ExKinoRay.mkv2.30 GB

Показать еще раздачи по запросу проект:
Сегодня U Проект «Анна Николаевна» [02х01-07 из 08] (2021) WEBRip-AVC 7.46 GB ↑ 52 ↓ 174
Сегодня U Проект «Анна Николаевна» [02x01-07 из 08] (2021) WEBRip 1080p 16.05 GB ↑ 32 ↓ 130
2021-10-15 U Проект «Анна Николаевна» [02x01-06 из 08] (2021) WEBRip 1080p от ExKinoRay 13.86 GB ↑ 32 ↓ 53
2021-10-15 U Проект «Анна Николаевна» [02х01-06 из 08] (2021) WEBRip-AVC от Files-x 5.06 GB ↑ 35 ↓ 49
2021-10-14 U Проект «Анна Николаевна» [02х01-06 из 08] (2021) WEBRip 5.05 GB ↑ 15 ↓ 50
2021-10-14 U Проект «Анна Николаевна» [02x01-06 из 08] (2021) WEBRip 1080p 13.86 GB ↑ 39 ↓ 143
2021-10-14 U Проект «Анна Николаевна» [02x01-06 из 08] (2021) WEBRip 720p от ExKinoRay 9.84 GB ↑ 11 ↓ 72

Отзывы
Зарегистрируйтесь чтобы добавить комментарий.
Загрузите программу
  byTorrent
Обратная связь
Copyleft ©