↑↓torrent.by
Поиск
Логин: Регистрация
Пароль: Восстановить пароль

Империя Мертвецов / Shisha no Teikoku (2015) BDRip 1080p | P

Скачать imperiya-mertvecov-shisha-no-teikoku-2015-bdrip-1080p-p.torrent
U Магнитная ссылка Размер: 9.67 GB Раздают: 23 Качают: 4 Добавлен: 2020-02-09 06:14:51
Империя Мертвецов / Shisha no Teikoku (2015) BDRip 1080p | P

Название: Империя Мертвецов
Оригинальное название: Shisha no Teikoku
Год выпуска: 2015
Жанр:  Мультфильм, фантастика, полнометражный
Режиссер: Рётаро Макихара
В ролях: Ёсимаса Хосоя, Аюму Мурасэ, Тайтэ Кусуноки, Синъитиро Мики, Ямасита Дайки, Акио Оцука, Кана Ханадзава

О фильме: Фильм отправит нас в Европу XIX века. Юный студент Джон Уотсон был завербован службой разведки в качестве секретного агента. Технократия — мир, где наука совершила невероятный прорыв для любой промышленности. Создание гомункулов поставлено на поток, и существа с мертвым телом и искусственной душой используются во всех сферах жизни в роли солдат и рабочей силы. Главного героя забрасывает в Афганистан в качестве военного медика, а также с целью наконец открыть тайну происходящего.

Страна: Япония
Студия: Wit Studio
Продолжительность: 02:00:00
Перевод: Профессиональный многоголосый | Мобильное телевидение | с онлайн-кинотеатра ivi

Файл
Качество: BDRip (1080p)
Видео: MPEG-4 AVC, 11300 Кбит/с, 1920x1080, 10 бит
Аудио: Русский (AC3, 2 ch, 256 Кбит/с)

*** Без какой-либо рекламы!
*** Релиз: al1337>_<

Семпл


[+] МедиаИнфо
General
Unique ID                                : 79965105451730762090306110828312954564 (0x3C28B817905E1AC602BD20EEC2E686C4)
Complete name                            : S:Releases[Beatrice-Raws] The Empire of Corpses [BDRip 1920x1080 x264 FLAC].mkv
Format                                   : Matroska
Format version                           : Version 4
File size                                : 9.67 GiB
Duration                                 : 2 h 0 min
Overall bit rate                         : 11.5 Mb/s
Encoded date                             : UTC 2020-02-04 23:32:50
Writing application                      : mkvmerge v43.0.0 ('The Quartermaster') 64-bit
Writing library                          : libebml v1.3.10 + libmatroska v1.5.2

Video
ID                                       : 1
Format                                   : AVC
Format/Info                              : Advanced Video Codec
Format profile                           : High 10@L5
Format settings                          : CABAC / 4 Ref Frames
Format settings, CABAC                   : Yes
Format settings, Reference frames        : 4 frames
Codec ID                                 : V_MPEG4/ISO/AVC
Duration                                 : 2 h 0 min
Bit rate                                 : 11.3 Mb/s
Width                                    : 1 920 pixels
Height                                   : 1 080 pixels
Display aspect ratio                     : 16:9
Frame rate mode                          : Constant
Frame rate                               : 23.976 (24000/1001) FPS
Color space                              : YUV
Chroma subsampling                       : 4:2:0
Bit depth                                : 10 bits
Scan type                                : Progressive
Bits/(Pixel*Frame)                       : 0.227
Stream size                              : 9.45 GiB (98%)
Writing library                          : x264 core 148 r2597M e86f3a1 (DJATOM's build)
Encoding settings                        : cabac=1 / ref=4 / deblock=1:1:-1 / analyse=0x3:0x113 / me=umh / subme=9 / psy=1 / fade_compensate=0.00 / psy_rd=1.00:0.00 / mixed_ref=1 / me_range=32 / chroma_me=1 / trellis=2 / 8x8dct=1 / cqm=0 / deadzone=21,11 / fast_pskip=1 / chroma_qp_offset=-2 / threads=34 / lookahead_threads=5 / sliced_threads=0 / nr=0 / decimate=1 / interlaced=0 / bluray_compat=0 / constrained_intra=0 / bframes=9 / b_pyramid=2 / b_adapt=2 / b_bias=0 / direct=1 / weightb=1 / open_gop=0 / weightp=2 / keyint=250 / keyint_min=23 / scenecut=40 / intra_refresh=0 / rc=crf / mbtree=0 / crf=15.0000 / qcomp=0.72 / qpmin=0 / qpmax=81 / qpstep=4 / ip_ratio=1.40 / pb_ratio=1.30 / aq=1:0.85
Default                                  : Yes
Forced                                   : No
Color range                              : Limited
Color primaries                          : BT.709
Transfer characteristics                 : BT.709
Matrix coefficients                      : BT.709

Audio
ID                                       : 2
Format                                   : AC-3
Format/Info                              : Audio Coding 3
Commercial name                          : Dolby Digital
Codec ID                                 : A_AC3
Duration                                 : 2 h 0 min
Bit rate mode                            : Constant
Bit rate                                 : 256 kb/s
Channel(s)                               : 2 channels
Channel layout                           : L R
Sampling rate                            : 48.0 kHz
Frame rate                               : 31.250 FPS (1536 SPF)
Compression mode                         : Lossy
Stream size                              : 220 MiB (2%)
Language                                 : Russian
Service kind                             : Complete Main
Default                                  : Yes
Forced                                   : No

Menu
00:00:00.000                             : en:00:00:00.000
00:00:27.027                             : en:00:00:27.027
00:08:27.590                             : en:00:08:27.590
00:15:45.820                             : en:00:15:45.820
00:19:57.154                             : en:00:19:57.154
00:30:33.832                             : en:00:30:33.832
00:36:28.144                             : en:00:36:28.144
00:45:15.463                             : en:00:45:15.463
00:53:29.915                             : en:00:53:29.915
01:00:39.094                             : en:01:00:39.094
01:07:25.041                             : en:01:07:25.041
01:12:41.274                             : en:01:12:41.274
01:20:15.936                             : en:01:20:15.936
01:27:20.819                             : en:01:27:20.819
01:37:13.286                             : en:01:37:13.286
01:47:06.879                             : en:01:47:06.879
01:52:04.718                             : en:01:52:04.718
01:58:51.374                             : en:01:58:51.374



Скриншоты:
[+] Всего файлов в раздаче - 1:
[Beatrice-Raws] The Empire of Corpses [BDRip 1920x1080 x264 FLAC].mkv9.67 GB

Отзывы
Зарегистрируйтесь чтобы добавить комментарий.
Обратная связь
Copyleft ©