↑↓torrent.by
Поиск
Логин: Регистрация
Пароль: Восстановить пароль

Nat Geo Wild: Настоящая чёрная пантера / The Real Black Panther (2020) HDTV 1080i | P1

Скачать nat-geo-wild-nastoyaschaya-chernaya-pantera-the-real-black-panther-2020-hdtv-1080i-p1.torrent
U Магнитная ссылка Размер: 1.96 GB Раздают: 40 Качают: 14 Добавлен: 2020-02-10 06:10:17
Nat Geo Wild: Настоящая чёрная пантера / The Real Black Panther (2020) HDTV  1080i | P1

Название: Настоящая чёрная пантера
Оригинальное название: The Real Black Panther
Год выхода: 2020
Жанр: Документальный, природа, флора, фауна
Режиссер: Джон Коллум

О фильме:
В лесах вдоль реки Кабини в Индии у леопардов появился новый соперник, который смело вышел с ними на тропу войны. Это история Саи, настоящей чёрной пантеры, пришедшей в эти места, чтобы захватить власть над этой территорией.

Страна: США
Студия: SUMBIO STUDIOS NATIONAL GEOGRAPHIC
Продолжительность: ~00:43:58
Перевод: Профессиональный (одноголосый закадровый) Велес

Файл
Кодек: AVC/H.264
Качество: HDTV  1080i
Видео: 1920x1080 (16:9), 25 fps, AVC (H.264), High@L4, 5758 kbps, 0.111 bit/pixel
Звук:
Русский 48 kHz, MPEG Layer 2, 2 ch, ~192.00 kbps avg
Английский 48 kHz, MPEG Layer 2, 2 ch, ~192.00 kbps avg

Семпл

Релиз от: kyba
[+] MediaInfo
Complete name               : F:НаладкиНастоящая черная пантера.ts
Format                      : MPEG-TS
File size                   : 1.96 GiB
Duration                    : 43 min 58 s
Overall bit rate mode       : Variable
Overall bit rate            : 6 397 kb/s

Video
ID                          : 308 (0x134)
Menu ID                     : 26008 (0x6598)
Format                      : AVC
Format/Info                 : Advanced Video Codec
Format profile              : High@L4
Format settings             : CABAC / 4 Ref Frames
Format settings, CABAC      : Yes
Format settings, Reference  : 4 frames
Format settings, GOP        : M=4, N=28
Codec ID                    : 27
Duration                    : 43 min 57 s
Bit rate                    : 5 758 kb/s
Width                       : 1 920 pixels
Height                      : 1 080 pixels
Display aspect ratio        : 16:9
Frame rate                  : 25.000 FPS
Standard                    : Component
Color space                 : YUV
Chroma subsampling          : 4:2:0
Bit depth                   : 8 bits
Scan type                   : Interlaced
Scan type, store method     : Separated fields
Scan order                  : Top Field First
Bits/(Pixel*Frame)          : 0.111
Stream size                 : 1.77 GiB (90%)
Color range                 : Limited
Color primaries             : BT.709
Transfer characteristics    : BT.709
Matrix coefficients         : BT.709

Audio #1
ID                          : 408 (0x198)
Menu ID                     : 26008 (0x6598)
Format                      : MPEG Audio
Format version              : Version 1
Format profile              : Layer 2
Codec ID                    : 3
Duration                    : 43 min 58 s
Bit rate mode               : Constant
Bit rate                    : 192 kb/s
Channel(s)                  : 2 channels
Sampling rate               : 48.0 kHz
Frame rate                  : 41.667 FPS (1152 SPF)
Compression mode            : Lossy
Delay relative to video     : -120 ms
Stream size                 : 60.4 MiB (3%)
Language                    : Russian

Audio #2
ID                          : 428 (0x1AC)
Menu ID                     : 26008 (0x6598)
Format                      : MPEG Audio
Format version              : Version 1
Format profile              : Layer 2
Codec ID                    : 3
Duration                    : 43 min 58 s
Bit rate mode               : Constant
Bit rate                    : 128 kb/s
Channel(s)                  : 2 channels
Sampling rate               : 48.0 kHz
Frame rate                  : 41.667 FPS (1152 SPF)
Compression mode            : Lossy
Delay relative to video     : -120 ms
Stream size                 : 40.3 MiB (2%)
Language                    : English

Text
ID                          : 508 (0x1FC)
Menu ID                     : 26008 (0x6598)
Format                      : DVB Subtitle
Codec ID                    : 6
Duration                    : 43 min 56 s
Delay relative to video     : 100 ms
Language                    : Russian



Скриншоты:
[+] Всего файлов в раздаче - 1:
Настоящая черная пантера.ts1.96 GB

Похожие раздачи по запросу - wild:
2020-01-13 U Экзотическая / Дикая Уганда / Wild Uganda (2018) DVB | P1 1.54 GB ↑ 60 ↓ 6
2019-09-08 U Nat Geo Wild: Окаванго: река мечты / Okavango: River of Dreams [01-03 из 03] (2019) HDTV 1080i | P1 6.23 GB ↑ 46 ↓ 10
2018-10-20 U Ведьмак 3: Дикая Охота / The Witcher 3: Wild Hunt + HD Reworked Project [v 1.31 + 18 DLC] (2015) PC | RePack от xatab 31.60 GB ↑ 688 ↓ 519

Отзывы
Зарегистрируйтесь чтобы добавить комментарий.
Обратная связь
Copyleft ©