↑↓torrent.by
Поиск
Логин: Регистрация
Пароль: Восстановить пароль

J2: J Возмездие / J2: J Retribusi (2021) WEB-DLRip-AVC | L1

Скачать j2-j-vozmezdie-retribusi-2021-web-dlrip-avc-l1.torrent
U Магнитная ссылка Размер: 2.06 GB Раздают: 59 Качают: 6 Добавлен: 2021-09-21 08:45:38
J2: J Возмездие / J2: J Retribusi (2021) WEB-DLRip-AVC | L1

Год выпуска: 2021
Выпущено: Малайзия, Infinitus Production, Primeworks Studios, Sunstrong Entertainment, TGV Pictures
Жанр:  Боевик
Режиссер: Назрул Ашрафф Махзан, Назим Шах
В ролях: Зул Арифин, Ашраф Синклер, Чэнь Имин, Амелия Хендерсон, Айнин Батрися, Росям Нор, Фарид Амирул, Аль-Фудхаил Анвар, Эрик Чанг, Аним Эзати

О фильме: Бывший спецназовец Джей устраивается телохранителем к бизнесмену Дато Хашима, охранять его маленькую дочку Нади. Дато решает продать свой отель и уйти в отставку. Во время продажи и последней пресс-конференции, отель захватывают вооруженные преступники. В заложниках оказываются десятки человек. Преступники ищут Нади, им нужна девочка, чтобы надавить на отца. Связи с внешним миром нет, но Джей не собирается сдаваться. Он намерен любой ценой защитить ребенка.

Продолжительность: 01:48:56
Перевод: Любительский одноголосый (Виктор Береговых)
Субтитры: Русские (Виктор Береговых), английские

Файл                                      
Формат: Matroska
Качество: WEB-DLRip-AVC
Видео: 1024x428 at 24.000 fps, x264@L4.1, ~2067 kbps
Аудио 1: AC3, 6 ch, ~448 kbps - | Русский | -
Аудио 2: AC3, 6 ch, ~192 kbps - | Малайский | -
Формат субтитров: softsub (SRT)

***Релиз от: -=DoMiNo=-


[+] M/I
x264 [info]: frame I:1332  Avg QP:15.86  size: 46504
x264 [info]: frame P:41205 Avg QP:17.65  size: 19482
x264 [info]: frame B:114343 Avg QP:19.32  size:  7209

General
Unique ID                   : 334342303337645728559326398097597235085 (0xFB87FC4108A7FBA6DC9E97B48E017F8D)
Complete name               : G:2.J.Retribusii.(2021).WEB-DLRip-AVC.mkv
Format                      : Matroska
Format version              : Version 4
File size                   : 2.06 GiB
Duration                    : 1 h 48 min
Overall bit rate            : 2 710 kb/s
Encoded date                : UTC 2021-09-20 19:20:44
Writing application         : mkvmerge v61.0.0 ('So') 64-bit
Writing library             : libebml v1.4.2 + libmatroska v1.6.4
Cover                       : Yes
Attachments                 : Cover.jpg / Cover 2.jpg

Video
ID                          : 1
Format                      : AVC
Format/Info                 : Advanced Video Codec
Format profile              : High@L4.1
Format settings             : CABAC / 12 Ref Frames
Format settings, CABAC      : Yes
Format settings, Reference  : 12 frames
Codec ID                    : V_MPEG4/ISO/AVC
Duration                    : 1 h 48 min
Bit rate                    : 2 067 kb/s
Width                       : 1 024 pixels
Height                      : 428 pixels
Display aspect ratio        : 2.40:1
Frame rate mode             : Constant
Frame rate                  : 24.000 FPS
Color space                 : YUV
Chroma subsampling          : 4:2:0
Bit depth                   : 8 bits
Scan type                   : Progressive
Bits/(Pixel*Frame)          : 0.197
Stream size                 : 1.57 GiB (76%)
Title                       : -=DoMiNo=-
Writing library             : x264 core 164 r3065+55M 280faca t_mod_New [(8 & 10)-bit@all X86_64]
Encoding settings           : cabac=1 / ref=12 / deblock=1:-3:-2 / analyse=0x3:0x133 / me=umh / subme=10 / psy=1 / fade_compensate=0.00 / psy_rd=1.00:0.20 / mixed_ref=1 / me_range=32 / chroma_me=1 / trellis=2 / 8x8dct=1 / cqm=0 / deadzone=21,11 / fast_pskip=0 / chroma_qp_offset=-3 / threads=24 / lookahead_threads=3 / sliced_threads=0 / nr=0 / decimate=1 / interlaced=0 / bluray_compat=0 / constrained_intra=0 / fgo=0 / bframes=14 / b_pyramid=2 / b_adapt=2 / b_bias=0 / direct=1 / weightb=1 / open_gop=0 / weightp=2 / keyint=240 / keyint_min=24 / scenecut=40 / intra_refresh=0 / rc_lookahead=60 / rc=crf / mbtree=0 / crf=18.5000 / qcomp=0.65 / qpmin=0:0:0 / qpmax=69:69:69 / qpstep=4 / vbv_maxrate=50000 / vbv_bufsize=62500 / crf_max=0.0 / nal_hrd=none / filler=0 / ip_ratio=1.30 / pb_ratio=1.20 / aq=2:1.00 / aq-sensitivity=10.00 / aq-factor=1.00:1.00:1.00 / aq2=0 / aq3=0
Language                    : English
Default                     : Yes
Forced                      : No

Audio #1
ID                          : 2
Format                      : AC-3
Format/Info                 : Audio Coding 3
Commercial name             : Dolby Digital
Codec ID                    : A_AC3
Duration                    : 1 h 48 min
Bit rate mode               : Constant
Bit rate                    : 448 kb/s
Channel(s)                  : 6 channels
Channel layout              : L R C LFE Ls Rs
Sampling rate               : 48.0 kHz
Frame rate                  : 31.250 FPS (1536 SPF)
Compression mode            : Lossy
Stream size                 : 349 MiB (17%)
Title                       : L1
Language                    : Russian
Service kind                : Complete Main
Default                     : Yes
Forced                      : No

Audio #2
ID                          : 3
Format                      : AC-3
Format/Info                 : Audio Coding 3
Commercial name             : Dolby Digital
Codec ID                    : A_AC3
Duration                    : 1 h 48 min
Bit rate mode               : Constant
Bit rate                    : 192 kb/s
Channel(s)                  : 6 channels
Channel layout              : L R C LFE Ls Rs
Sampling rate               : 48.0 kHz
Frame rate                  : 31.250 FPS (1536 SPF)
Compression mode            : Lossy
Stream size                 : 150 MiB (7%)
Language                    : Malayalam
Service kind                : Complete Main
Default                     : Yes
Forced                      : No

Text #1
ID                          : 4
Format                      : UTF-8
Codec ID                    : S_TEXT/UTF8
Codec ID/Info               : UTF-8 Plain Text
Duration                    : 1 h 41 min
Bit rate                    : 51 b/s
Count of elements           : 1128
Stream size                 : 38.3 KiB (0%)
Title                       : Виктор Береговых
Language                    : Russian
Default                     : No
Forced                      : No

Text #2
ID                          : 5
Format                      : UTF-8
Codec ID                    : S_TEXT/UTF8
Codec ID/Info               : UTF-8 Plain Text
Duration                    : 1 h 41 min
Bit rate                    : 33 b/s
Count of elements           : 1201
Stream size                 : 25.0 KiB (0%)
Title                       : English
Language                    : English
Default                     : No
Forced                      : No

Text #3
ID                          : 6
Format                      : UTF-8
Codec ID                    : S_TEXT/UTF8
Codec ID/Info               : UTF-8 Plain Text
Duration                    : 1 h 41 min
Bit rate                    : 34 b/s
Count of elements           : 1201
Stream size                 : 25.8 KiB (0%)
Title                       : Malay
Language                    : Malay
Default                     : No
Forced                      : No



[+] Примечания:
Перевод и озвучивание: Виктора Береговых
Заказ озвучки: vitolinform



Скриншоты:
[+] Всего файлов в раздаче - 1:
2.J.Retribusii.(2021).WEB-DLRip-AVC.mkv2.06 GB

Похожие раздачи по запросу - возмездие:
2021-09-21 U J2: J Возмездие / J2: J Retribusi (2021) WEB-DLRip | L1 1.46 GB ↑ 49 ↓ 29
2021-09-20 U J2: J Возмездие / J2: J Retribusi (2021) WEB-DL 1080p | L1 3.13 GB ↑ 67 ↓ 38
2021-06-18 U Лейтенант Хорнблауэр. Возмездие / Hornblower: Retribution (2001) BDRip-AVC от msltel | P 2.81 GB ↑ 56 ↓ 8

Отзывы
Зарегистрируйтесь чтобы добавить комментарий.
Загрузите программу
  byTorrent
Обратная связь
Copyleft ©