↑↓torrent.by
Поиск
Логин: Регистрация
Пароль: Восстановить пароль

Следствие вели... с Леонидом Каневским [466-467] (2020) WEBRip от GeneralFilm

Скачать sledstvie-veli-s-leonidom-kanevskim-466-467-2020-webrip-ot-generalfilm.torrent
U Магнитная ссылка Размер: 1,003.60 MB Раздают: 44 Качают: 18 Добавлен: 2020-02-10 10:56:37
Следствие вели... с Леонидом Каневским [466-467] (2020) WEBRip от GeneralFilm

Год выпуска: 2020
Жанр:  Документальный, детектив, криминал, расследование, история
Выпущено: Россия, НТВ
Режиссер: Игорь Ромащенко, Борис Фёдоров
Ведущий: Леонид Каневский

О фильме: Эти уголовные дела гремели на весь Советский Союз. По ним были написаны романы и сняты художественные фильмы. Их фигуранты - миллионеры эпохи социализма, хитроумные воры, профессиональные грабители и валютчики. Они бросили вызов советскому обществу. Вызов приняли лучшие сыщики страны. В их распоряжении не было компьютеров, сотовой связи и бойцов ОМОНа. Но это не мешало вершиться правосудию. Главная цель сериала - не просто рассказать о преступлениях и злоумышленниках советского времени, а показать ушедшую эпоху так, чтобы молодые зрители смогли прочувствовать дух ушедшего времени, а зрители постарше - ностальгию по прошлому.

Качество: WEBRip
Видео: XviD, ~ 1500 Кбит/с, 720x400
Аудио: Русский (AC3, 2 ch, 192 Кбит/с)
Продолжительность: 2 x ~ 00:41:00
Перевод: Не требуется
Субтитры: нет

Релиз:
[+] MediaInfo

Общее
Полное имя                               : D:Sledstvie veli... s Leonidom Kanevskim.(2020).WEBRip.GeneralFilm1.Sledstvie veli... s Leonidom Kanevskim.(2020.02.02).WEBRip.GeneralFilm.avi
Формат                                   : AVI
Формат/Информация                        : Audio Video Interleave
Размер файла                             : 502 Мбайт
Продолжительность                        : 41 м.
Общий поток                              : 1698 Кбит/сек
Программа кодирования                    : VirtualDubMod 1.5.10.3 | www.virtualdub-fr.org || (build 2550/release)
Библиотека кодирования                   : VirtualDubMod build 2550/release

Видео
Идентификатор                            : 0
Формат                                   : MPEG-4 Visual
Профиль формата                          : Advanced Simple@L5
Параметр BVOP формата                    : 1
Параметр QPel формата                    : Нет
Параметр GMC формата                     : Без точки перехода
Параметр матрицы формата                 : Выборочная
Идентификатор кодека                     : XVID
Идентификатор кодека/Подсказка           : XviD
Продолжительность                        : 41 м.
Битрейт                                  : 1496 Кбит/сек
Ширина                                   : 720 пикселей
Высота                                   : 400 пикселей
Соотношение сторон                       : 16:9
Частота кадров                           : 25,000 кадров/сек
Цветовое пространство                    : YUV
Субдискретизация насыщенности            : 4:2:0
Битовая глубина                          : 8 бит
Тип развёртки                            : Прогрессивная
Метод сжатия                             : С потерями
Бит/(Пиксели*Кадры)                      : 0.208
Размер потока                            : 442 Мбайт (88%)
Библиотека кодирования                   : XviD 1.2.1 (UTC 2008-12-04)

Аудио
Идентификатор                            : 1
Формат                                   : AC-3
Формат/Информация                        : Audio Coding 3
Расширение режима                        : CM (complete main)
Параметр Endianness формата              : Big
Идентификатор кодека                     : 2000
Продолжительность                        : 41 м.
Вид битрейта                             : Постоянный
Битрейт                                  : 192 Кбит/сек
Каналы                                   : 2 канала
Расположение каналов                     : Front: L R
Частота                                  : 48,0 КГц
Битовая глубина                          : 16 бит
Метод сжатия                             : С потерями
Размер потока                            : 56,7 Мбайт (11%)
Выравнивание                             : Разделение по промежуткам
Продолжительность промежутка             : 40  мс. (1,00 видеокадр)
Время предзагрузки промежутка            : 500  мс.




[+] Содержание

466. Преступная связь (2020.02.02)
1984-й год, Ижевск. Пожарные приехали на вызов и обнаружили в квартире тело десятилетнего мальчика. Но он погиб не от дыма или огня. Распутывая это необычное преступление, сыщики были вынуждены досконально изучить историю семьи и узнать многие тщательно скрываемые тайны…

467. Маркиз с большой дороги (2020.02.09)
1988 год, Саратов. В милицию обращается семейная пара и сообщает: бандиты требуют с них огромную сумму, угрожая убить ребенка. На подготовку операции практически нет времени. Во время захвата бандитов ситуация выходит из-под контроля, начинается перестрелка. Озверевшие уголовники перемещаются по городу, в их руках оказываются сразу несколько заложников.



Скриншоты:
[+] Всего файлов в раздаче - 2:
01.Sledstvie veli... s Leonidom Kanevskim.(2020.02.02).WEBRip.GeneralFilm.avi501.62 MB
02.Sledstvie veli... s Leonidom Kanevskim.(2020.02.09).WEBRip.GeneralFilm.avi501.98 MB

Похожие раздачи по запросу - следствие:
2020-02-10 U Следствие вели... с Леонидом Каневским. Маркиз с большой дороги [эфир от 09.02] (2020) WEBRip 1080p от ExKinoRay 1.75 GB ↑ 62 ↓ 5

Отзывы
Зарегистрируйтесь чтобы добавить комментарий.
Обратная связь
Copyleft ©