↑↓torrent.by
Поиск
Логин: Регистрация
Пароль: Восстановить пароль

Сквозь чёрное стекло (2019) WEB-DLRip от GeneralFilm | iTunes

Скачать skvoz-chernoe-steklo-2019-web-dlrip-ot-generalfilm-itunes.torrent
U Магнитная ссылка Размер: 1.46 GB Раздают: 77 Качают: 41 Добавлен: 2020-02-11 04:26:43
Сквозь чёрное стекло (2019) WEB-DLRip от GeneralFilm | iTunes

Оригинальное название: Сквозь чёрное стекло
Год выпуска: 2019
Жанр:  Драма
Выпущено: Россия, «Proline Film»
Режиссер: Константин Лопушанский
В ролях: Максим Суханов, Василиса Денисова, Надежда Маркина, Ольга Онищенко, Андрей Полищук, Анна Екатерининская, Елена Зимина, Анна Дулова, Александра Мамкаева, Алексей Манцыгин

О фильме: История незрячей девушки, судьба которой преподносит уникальный шанс. Состоятельный мужчина готов подарить ей зрение, если она вслепую станет его женой. Этот дар открывает героине жестокую правду жизни...

Качество: WEB-DLRip
Видео: XviD build 73, 720x400 (16:9), 25.000 fps, 1299 Kbps (0.180 bit/pixel)
Аудио: 48.0 kHz, AC3, 2/0 ch, 192 kbps
Продолжительность: 02:19:08
Перевод: Не требуется [Русский]
Cубтитры: нет

Релиз:


[+] MediaInfo
General
Complete name               : D:RazdachiSkvozj.Chernoe.Steklo.2019.WEB-DLRip.GeneralFilm.avi
Format                      : AVI
Format/Info                 : Audio Video Interleave
File size                   : 1.46 GiB
Duration                    : 2 h 19 min
Overall bit rate            : 1 501 kb/s
Writing application         : VirtualDubMod 1.5.10.3 | www.virtualdub-fr.org || (build 2550/release)
Writing library             : VirtualDubMod build 2550/release

Video
ID                          : 0
Format                      : MPEG-4 Visual
Format profile              : Advanced Simple@L5
Format settings             : BVOP1 / Custom Matrix
Format settings, BVOP       : 1
Format settings, QPel       : No
Format settings, GMC        : No warppoints
Format settings, Matrix     : Custom
Codec ID                    : XVID
Codec ID/Hint               : XviD
Duration                    : 2 h 19 min
Bit rate                    : 1 299 kb/s
Width                       : 720 pixels
Height                      : 400 pixels
Display aspect ratio        : 16:9
Frame rate                  : 25.000 FPS
Color space                 : YUV
Chroma subsampling          : 4:2:0
Bit depth                   : 8 bits
Scan type                   : Progressive
Compression mode            : Lossy
Bits/(Pixel*Frame)          : 0.180
Stream size                 : 1.26 GiB (87%)
Writing library             : XviD 73

Audio
ID                          : 1
Format                      : AC-3
Format/Info                 : Audio Coding 3
Commercial name             : Dolby Digital
Codec ID                    : 2000
Duration                    : 2 h 19 min
Bit rate mode               : Constant
Bit rate                    : 192 kb/s
Channel(s)                  : 2 channels
Channel layout              : L R
Sampling rate               : 48.0 kHz
Frame rate                  : 31.250 FPS (1536 SPF)
Compression mode            : Lossy
Stream size                 : 191 MiB (13%)
Alignment                   : Split across interleaves
Interleave, duration        : 40  ms (1.00 video frame)
Interleave, preload duratio : 500  ms
Service kind                : Complete Main



Скриншоты:
[+] Всего файлов в раздаче - 1:
Skvozj.Chernoe.Steklo.2019.WEB-DLRip.GeneralFilm.avi1.46 GB

Похожие раздачи по запросу - сквозь:
2020-02-15 U Сквозь чёрное стекло (2019) WEB-DLRip-AVC от New-Team | iTunes 2.37 GB ↑ 36 ↓ 12
2020-02-10 U Сквозь чёрное стекло (2019) WEB-DL 1080p | iTunes 5.48 GB ↑ 23 ↓ 88
2016-09-03 U Стивен Кинг - Темная башня 4.5: Ветер сквозь замочную скважину (2014) MP3 1.17 GB ↑ 691 ↓ 11

Отзывы
Зарегистрируйтесь чтобы добавить комментарий.
Обратная связь
Copyleft ©