↑↓torrent.by
Поиск
Логин: Регистрация
Пароль: Восстановить пароль

Холодное сердце 2 / Frozen II (2019) WEB-DL 1080p | D

Скачать holodnoe-serdce-2-frozen-ii-2019-web-dl-1080p-d.torrent
U Магнитная ссылка Размер: 3.70 GB Раздают: 222 Качают: 65 Добавлен: 2020-02-11 04:27:12
Холодное сердце 2 / Frozen II (2019) WEB-DL 1080p | D

Название: Холодное сердце 2
Оригинальное название: Frozen II
Год выхода: 2019
Жанр: Мультфильм, мюзикл, фэнтези, комедия, приключения, семейный
Режиссер: Крис Бак, Дженнифер Ли
В ролях: Идина Мензел, Кристен Белл, Джонатан Грофф, Джош Гэд, Стерлинг К. Браун, Эван Рэйчел Вуд, Альфред Молина, Марта Плимптон, Джейсон Риттер, Рэйчел Мэттьюз

О фильме:
Анна, Эльза, Кристоф, его верный олень Свен и никогда не унывающий снеговик Олаф должны будут покинуть уютное королевство Эренделл и отправиться ещё дальше на север, в путешествие, которое приведет их к истокам древних легенд и поможет раскрыть тайны, касающиеся прошлого их родной страны.

Страна: США
Студия: Walt Disney Animation Studios, Walt Disney Pictures
Продолжительность: 01:43:13
Перевод: Дублированный | Онлайн кинотеатр

Файл
Кодек: AVC
Качество: WEB-DL 1080p
Видео: MPEG-4 AVC, 4519 Kбит/с, 1920x804, 23.976 кадр/с
Аудио #1: Русский (АС3, 2 ch, 192 Кбит/с, 48.0 KHz) Профессиональный (дублированный) Онлайн кинотеатр
Аудио #2: Английский (АС3, 6 ch, 384 Кбит/с, 48.0 KHz)
Субтитры: Русские, английские
► Без Рекламы!


[+] MediaInfo
Источник: Frozen.2.2019.1080p.WEB-DL.DD5.1.H264-FGT
General
Unique ID                      : 237147883255104213067968854543071291073 (0xB269055DB1A2FF60861C9B772915A6C1)
Complete name                  : Frozen.2.2019.WEB-DL.1080p.mkv
Format                         : Matroska
Format version                 : Version 4
File size                      : 3.70 GiB
Duration                       : 1 h 44 min
Overall bit rate               : 5 093 kb/s
Movie name                     : Frozen.2.2019.1080p.WEB-DL.DD5.1.H264-FGT
Encoded date                   : UTC 2020-02-10 19:41:01
Writing application            : mkvmerge v7.1.0 ('Good Love') 64bit built on Jul 27 2014 13:06:55
Writing library                : libebml v1.3.0 + libmatroska v1.4.1

Video
ID                             : 1
Format                         : AVC
Format/Info                    : Advanced Video Codec
Format profile                 : High@L4
Format settings                : CABAC / 5 Ref Frames
Format settings, CABAC         : Yes
Format settings, Reference fra : 5 frames
Codec ID                       : V_MPEG4/ISO/AVC
Duration                       : 1 h 44 min
Bit rate                       : 4 519 kb/s
Width                          : 1 920 pixels
Height                         : 804 pixels
Display aspect ratio           : 2.40:1
Frame rate mode                : Constant
Frame rate                     : 23.976 FPS
Color space                    : YUV
Chroma subsampling             : 4:2:0
Bit depth                      : 8 bits
Scan type                      : Progressive
Bits/(Pixel*Frame)             : 0.122
Stream size                    : 3.29 GiB (89%)
Language                       : English
Default                        : Yes
Forced                         : No
Color range                    : Limited
Color primaries                : BT.709
Transfer characteristics       : BT.709
Matrix coefficients            : BT.709

Audio #1
ID                             : 2
Format                         : AC-3
Format/Info                    : Audio Coding 3
Commercial name                : Dolby Digital
Codec ID                       : A_AC3
Duration                       : 1 h 43 min
Bit rate mode                  : Constant
Bit rate                       : 192 kb/s
Channel(s)                     : 2 channels
Channel layout                 : L R
Sampling rate                  : 48.0 kHz
Frame rate                     : 31.250 FPS (1536 SPF)
Compression mode               : Lossy
Stream size                    : 142 MiB (4%)
Language                       : Russian
Service kind                   : Complete Main
Default                        : Yes
Forced                         : No

Audio #2
ID                             : 3
Format                         : AC-3
Format/Info                    : Audio Coding 3
Commercial name                : Dolby Digital
Codec ID                       : A_AC3
Duration                       : 1 h 43 min
Bit rate mode                  : Constant
Bit rate                       : 384 kb/s
Channel(s)                     : 6 channels
Channel layout                 : L R C LFE Ls Rs
Sampling rate                  : 48.0 kHz
Frame rate                     : 31.250 FPS (1536 SPF)
Compression mode               : Lossy
Stream size                    : 283 MiB (7%)
Language                       : English
Service kind                   : Complete Main
Default                        : No
Forced                         : No

Text #1
ID                             : 4
Format                         : UTF-8
Codec ID                       : S_TEXT/UTF8
Codec ID/Info                  : UTF-8 Plain Text
Duration                       : 1 h 29 min
Bit rate                       : 85 b/s
Count of elements              : 1231
Stream size                    : 56.4 KiB (0%)
Language                       : Russian
Default                        : No
Forced                         : No

Text #2
ID                             : 5
Format                         : UTF-8
Codec ID                       : S_TEXT/UTF8
Codec ID/Info                  : UTF-8 Plain Text
Duration                       : 1 h 41 min
Bit rate                       : 59 b/s
Count of elements              : 1567
Stream size                    : 44.0 KiB (0%)
Language                       : English
Default                        : No
Forced                         : No

Menu
00:00:00.000                   : en:1
00:05:41.758                   : en:2
00:08:26.881                   : en:3
00:15:00.566                   : en:4
00:16:28.820                   : en:5
00:21:24.282                   : en:6
00:25:44.417                   : en:7
00:29:08.078                   : en:8
00:33:44.186                   : en:9
00:40:26.379                   : en:10
00:44:37.087                   : en:11
00:47:41.478                   : en:12
00:53:03.675                   : en:13
00:55:26.401                   : en:14
01:02:35.872                   : en:15
01:09:56.686                   : en:16
01:13:47.540                   : en:17
01:19:25.793                   : en:18
01:24:27.302                   : en:19
01:31:16.419                   : en:20



Скриншоты:
[+] Всего файлов в раздаче - 1:
Frozen.2.2019.WEB-DL.1080p.mkv3.70 GB

Показать еще раздачи по запросу холодное:
2020-04-21 U Холодное лето пятьдесят третьего (1987) HDTVRip 720p от KORSAR 1К3.46 GB ↑ 80 ↓ 9
2020-03-13 U Холодное сердце 2 / Frozen II (2019) BDRip 1080p от Ash61 | 3D-Video | halfOU | iTunes 6.97 GB ↑ 44 ↓ 24
2020-02-21 U Холодное сердце 2 / Frozen II (2019) BDRip-HEVC 1080p от HEVC-CLUB | iTunes 4.70 GB ↑ 126 ↓ 50
2020-02-18 U Холодное сердце 2 / Frozen II (2019) HDRip от Scarabey | iTunes 1.40 GB ↑ 216 ↓ 31
2020-02-17 U Холодное сердце 2 / Frozen II (2019) BDRemux 1080p от селезень | iTunes 19.88 GB ↑ 44 ↓ 28
2020-02-14 U Холодное сердце 2 / Frozen II (2019) UHD BDRemux 2160p от селезень | 4K | HDR | iTunes 50.62 GB ↑ 143 ↓ 282
2020-02-14 U Холодное сердце 2 / Frozen II (2019) BDRip-HEVC 2160p | HDR | iTunes 5.08 GB ↑ 64 ↓ 32

Отзывы
Зарегистрируйтесь чтобы добавить комментарий.
Обратная связь
Copyleft ©