↑↓torrent.by
Поиск
Логин: Регистрация
Пароль: Восстановить пароль

#Яжотец [01-02 из 21] (2021) WEBRip 720p

Скачать yazhotec-01-02-iz-21-2021-webrip-720p.torrent
U Магнитная ссылка Размер: 1.02 GB Раздают: 65 Качают: 18 Добавлен: 2021-09-21 08:46:15
#Яжотец [01-02 из 21] (2021) WEBRip 720p

Название: #Яжотец
Год выхода: 2021
Жанр: Комедия
Режиссер: Рустам Мосафир, Константин Смирнов, Константин Колесов
В ролях: Гоша Куценко, Алексей Родионов (IV), Екатерина Вуличенко, Сергей Масленников (II), Александр Обласов, Ольга Руднева, Григорий Дудник, Антон Лунин, Антон Никушин, Игорь Ким, Фанис Шайдуллин, Мирон Еремеев, Вадим Першин, Иван Рудометкин, Денис Сладков, Арсений Сидоров

О фильме:
Михаилу 44 года, в жизни он особо не преуспел, живет в квартире жены, которая и тащит всю семью. Единственное, что у него есть — это видеоблог, где они со своим сыном Степкой занимаются распаковками и обзорами игрушек. Во время очередной записи Михаил узнает, что у его жены есть другой. Михаил разводится, становится воскресным папой, но решает продолжать их с сыном блог. Только теперь он выходит в обучающе-воспитательном формате, Михаил передает Степе свой жизненный опыт и мудрость. А так как ни опыта, ни мудрости у него особо нет, все его попытки заканчиваются каким-нибудь происшествием.

Страна: Россия
Студия: Comedy Club Production
Продолжительность: 2 x ~ 00:25:00
Язык: Русский

Премьера: 20 сентября 2021 года (ТНТ)
Примечание: Без рекламы

Файл
Формат: MKV
Качество: WEBRip 720p
Видео: MPEG-4 AVC, ~ 3000 Кбит/с, 1280x720
Звук: AC3, 2 ch, 192 Кбит/с
Субтитры: Отсутствуют
Семпл


[+] MI
Общее
Уникальный идентификатор                 : 279011212009513686260709190556718341665 (0xD1E79AD45CB833E1CCCC37ED26921E21)
Полное имя                               : D:Yazhotec.2021.WEB-DL.720pYazhotec.E01.2021.WEB-DL.720p.mkv
Формат                                   : Matroska
Версия формата                           : Version 4
Размер файла                             : 488 Мбайт
Продолжительность                        : 21 м. 29 с.
Режим общего битрейта                    : Переменный
Общий поток                              : 3 176 Кбит/сек
Название фильма                          : Yazhotec.E01.2021.WEB-DL.720p
Дата кодирования                         : UTC 2021-09-20 17:31:54
Программа кодирования                    : mkvmerge v60.0.0 ('Are We Copies?') 64-bit
Библиотека кодирования                   : libebml v1.4.2 + libmatroska v1.6.4
Attachments                              : poster.jpg

Видео
Идентификатор                            : 1
Формат                                   : AVC
Формат/Информация                        : Advanced Video Codec
Профиль формата                          : High@L4.1
Настройки формата                        : CABAC / 2 Ref Frames
Параметр CABAC формата                   : Да
Параметр RefFrames формата               : 2 кадра
Идентификатор кодека                     : V_MPEG4/ISO/AVC
Продолжительность                        : 21 м. 28 с.
Вид битрейта                             : Переменный
Битрейт                                  : 3 000 Кбит/сек
Ширина                                   : 1 280 пикселей
Высота                                   : 720 пикселей
Соотношение сторон                       : 16:9
Режим частоты кадров                     : Постоянный
Частота кадров                           : 25,000 кадров/сек
Цветовое пространство                    : YUV
Субдискретизация насыщенности            : 4:2:0
Битовая глубина                          : 8 бит
Тип развёртки                            : Прогрессивная
Бит/(Пиксели*Кадры)                      : 0.130
Размер потока                            : 458 Мбайт (94%)
Default                                  : Да
Forced                                   : Нет
Цветовой диапазон                        : Limited
Основные цвета                           : BT.709
Характеристики трансфера                 : BT.709

Аудио
Идентификатор                            : 2
Формат                                   : AC-3
Формат/Информация                        : Audio Coding 3
Коммерческое название                    : Dolby Digital
Идентификатор кодека                     : A_AC3
Продолжительность                        : 21 м. 28 с.
Вид битрейта                             : Постоянный
Битрейт                                  : 192 Кбит/сек
Каналы                                   : 2 канала
Channel layout                           : L R
Частота                                  : 48,0 КГц
Частота кадров                           : 31,250 кадров/сек (1536 SPF)
Метод сжатия                             : С потерями
Задержка видео                           : -120 мс.
Размер потока                            : 29,5 Мбайт (6%)
Service kind                             : Complete Main
Default                                  : Да
Forced                                   : Нет



Скриншоты:
[+] Всего файлов в раздаче - 2:
Yazhotec.E01.2021.WEB-DL.720p.mkv488.01 MB
Yazhotec.E02.2021.WEB-DL.720p.mkv556.15 MB

Показать еще раздачи по запросу яжотец:
2021-10-08 U #Яжотец [01-21 из 21] (2021) WEBRip-AVC от Files-x 6.14 GB ↑ 75 ↓ 65
2021-10-08 U Яжотец [01-21 из 21] (2021) WEBRip от Files-x 6.17 GB ↑ 60 ↓ 74
2021-10-08 U #Яжотец [01-21 из 21] (2021) SATRip-AVC 5.74 GB ↑ 128 ↓ 93
2021-10-08 U #Яжотец [01-21 из 21] (2021) WEBRip 720p 10.90 GB ↑ 22 ↓ 35
2021-10-08 U #Яжотец [01-21 из 21] (2021) WEBRip 1080p 16.04 GB ↑ 20 ↓ 41
2021-10-07 U #Яжотец [01-20 из 21] (2021) WEBRip 1080p 15.24 GB ↑ 42 ↓ 104
2021-10-06 U #Яжотец [01-20 из 21] (2021) SATRip-AVC 5.44 GB ↑ 35 ↓ 77

Отзывы
Зарегистрируйтесь чтобы добавить комментарий.
Загрузите программу
  byTorrent
Обратная связь
Copyleft ©