↑↓torrent.by
Поиск
Логин: Регистрация
Пароль: Восстановить пароль

92-я церемония вручения премии Оскар. Красная дорожка / The 92nd Annual Academy Awards. Red Carpet [09.02] (2020) WEBRip 1080p | P2

Скачать 92-ya-ceremoniya-vrucheniya-premii-oskar-krasnaya-dorozhka-the-92nd-annual-academy-awards-red-carpet-09-02-2020-webrip-1080p-p2.torrent
U Магнитная ссылка Размер: 17.06 GB Раздают: 35 Качают: 12 Добавлен: 2020-02-13 05:58:55
92-я церемония вручения премии Оскар. Красная дорожка / The 92nd Annual Academy Awards. Red Carpet [09.02] (2020) WEBRip 1080p | P2

Название: 92-я церемония вручения премии "Оскар" (+ Красная Дорожка)
Оригинальное название: The 92nd Annual Academy Awards (+ Red Carpet)
Год выхода: 2020
Жанр: ТВ-шоу, концерт
Режиссер: Гленн Уайсс
Ведущие трансляции: Пётр Фадеев, Юлия Пересильд и Сергей Бурунов
В ролях: Леонардо ДиКаприо, Хоакин Феникс, Адам Драйвер, Скарлетт Йоханссон, Сирша Ронан, Рене Зеллвегер

О фильме:
92-я церемония вручения наград премии «Оскар» за заслуги в области кинематографа за 2019 год. Номинанты в 24 номинациях представлены Академией кинематографических искусств и наук (AMPAS) (актёрами Джоном Чо и Иссай Рэй) 13 января 2020 года. Церемония награждения состоялась 9 февраля 2020 года в театре «Долби» в Голливуде (Лос-Анджелес, штат Калифорния). После успеха прошлого года церемония вновь прошла без ведущего — в третий раз в истории (ранее — в 1989 и 2019 годах).

Страна: США
Студия: Academy of Motion Picture Arts and Sciences (AMPAS), American Broadcasting Company (ABC)
Продолжительность: 04:46:52
Перевод: Профессиональный (двухголосый закадровый) okko

Файл
Кодек: MPEG-4 AVC
Качество: WEBRip 1080p
Видео: 1920x1080 8192 Кбит/с, 25.000 FPS
Звук: AC3, 320 kb/s, 48.0 kHz, 2 channels

Семпл

Релиз от: Carlisle
[+] MediaInfo
General
Unique ID                   : 35841904781925419386041505770751498755 (0x1AF6E65737C45C36C34301AF9B6D9A03)
Complete name               : D:92-я церемония вручения премии Оскар 09 02 2020.mkv
Format                      : Matroska
Format version              : Version 4
File size                   : 17.1 GiB
Duration                    : 4 h 46 min
Overall bit rate            : 8 515 kb/s
Encoded date                : UTC 2020-02-11T16:24:21Z
Writing application         : HandBrake 1.1.2 2018090500
Writing library             : Lavf57.7.2

Video
ID                          : 1
Format                      : AVC
Format/Info                 : Advanced Video Codec
Format profile              : High@L4.2
Format settings             : CABAC / 2 Ref Frames
Format settings, CABAC      : Yes
Format settings, Reference  : 2 frames
Codec ID                    : V_MPEG4/ISO/AVC
Duration                    : 4 h 46 min
Bit rate                    : 8 192 kb/s
Width                       : 1 920 pixels
Height                      : 1 080 pixels
Display aspect ratio        : 16:9
Frame rate mode             : Constant
Frame rate                  : 25.000 FPS
Color space                 : YUV
Chroma subsampling          : 4:2:0
Bit depth                   : 8 bits
Scan type                   : Progressive
Bits/(Pixel*Frame)          : 0.158
Stream size                 : 16.1 GiB (94%)
Writing library             : x264 core 155 r2901 7d0ff22
Encoding settings           : cabac=1 / ref=1 / deblock=1:0:0 / analyse=0x3:0x113 / me=hex / subme=7 / psy=1 / psy_rd=1.00:0.00 / mixed_ref=0 / me_range=16 / chroma_me=1 / trellis=1 / 8x8dct=1 / cqm=0 / deadzone=21,11 / fast_pskip=1 / chroma_qp_offset=-2 / threads=24 / lookahead_threads=4 / sliced_threads=0 / nr=0 / decimate=1 / interlaced=0 / bluray_compat=0 / constrained_intra=0 / bframes=2 / b_pyramid=0 / b_adapt=1 / b_bias=0 / direct=1 / weightb=1 / open_gop=0 / weightp=2 / keyint=30 / keyint_min=15 / scenecut=40 / intra_refresh=0 / rc_lookahead=31 / rc=2pass / mbtree=1 / bitrate=8192 / ratetol=1.0 / qcomp=0.60 / qpmin=0 / qpmax=69 / qpstep=4 / cplxblur=20.0 / qblur=0.5 / vbv_maxrate=62500 / vbv_bufsize=78125 / nal_hrd=none / filler=0 / ip_ratio=1.40 / aq=1:1.00
Default                     : Yes
Forced                      : No
Color range                 : Limited
Color primaries             : BT.709
Transfer characteristics    : BT.709
Matrix coefficients         : BT.709

Audio
ID                          : 2
Format                      : AC-3
Format/Info                 : Audio Coding 3
Commercial name             : Dolby Digital
Codec ID                    : A_AC3
Duration                    : 4 h 46 min
Bit rate mode               : Constant
Bit rate                    : 320 kb/s
Channel(s)                  : 2 channels
Channel layout              : L R
Sampling rate               : 48.0 kHz
Frame rate                  : 31.250 FPS (1536 SPF)
Compression mode            : Lossy
Stream size                 : 657 MiB (4%)
Title                       : Stereo
Language                    : English
Service kind                : Complete Main
Default                     : Yes
Forced                      : No



Скриншоты:
[+] Всего файлов в раздаче - 1:
92-я церемония вручения премии Оскар 09 02 2020.mkv17.06 GB

Похожие раздачи по запросу - церемония:
2020-02-16 U 92-я церемония открытия и вручения премии «Оскар». Главное / The 92nd Annual Academy Awards [09.02] (2020) WEBRip 1080p | P2 5.35 GB ↑ 22 ↓ 5
2018-07-18 U Футбол. Чемпионат мира 2018. Финал. Франция - Хорватия + разминка + обзор + Церемония закрытия + Награждение [эфир от 15.07] (2018) WEBRip 3.44 GB ↑ 546 ↓ 10

Отзывы
Зарегистрируйтесь чтобы добавить комментарий.
Обратная связь
Copyleft ©