↑↓torrent.by
Поиск
Логин: Регистрация
Пароль: Восстановить пароль

Полицейский с Рублёвки. Новогодний беспредел 2 (2019) WEB-DLRip от Files-x

Скачать policeyskiy-s-rublevki-novogodniy-bespredel-2-2019-web-dlrip-ot-files-x.torrent
U Магнитная ссылка Размер: 1.37 GB Раздают: 133 Качают: 72 Добавлен: 2020-02-13 15:13:13
Полицейский с Рублёвки. Новогодний беспредел  2 (2019) WEB-DLRip  от Files-x

Оригинальное название: Полицейский с Рублёвки. Новогодний  беспредел 2
Год выпуска: 2019
Жанр:  Комедия
Режиссер: Илья Куликов
В ролях: Александр Петров (III), Сергей Бурунов, Александра Бортич, Татьяна Бабенкова, Софья Каштанова, Роман Попов, Рина Гришина, Ирина Вилкова, Ростислав Гулбис, Сергей Штатнов, Александр Дерепко, Сергей Комаров (II)

О фильме Близится Новый год, и сотрудники отдела полиции Барвихи планируют праздновать его за городом в компании старых друзей и коллег. Но непредвиденные обстоятельства в лице преступников, ограбивших крупное ювелирное предприятие, ставят праздник под угрозу. Смогут ли рублёвские полицейские вернуть украденные драгоценные камни стоимостью в миллионы долларов и спасти Новый год до того, как часы пробьют полночь?

Выпущено: Россия
Студия:   Legio Felix по заказу телеканала ТНТ
Продолжительность: 01:20:56
Перевод: Не требуется

Файл
Качество: WEB-DLRip
Видео: XviD, ~ 2227 Кбит/с, 720x304
Аудио: AC3, 2 ch, 192 Кбит/с

Релиз:


[+] MediaInfo
General
Complete name                    : C:UsersuserDownloadsVideoПолицейский с Рублёвки. Новогодний беспредел .2019.WEB-DLRip.  Files-x.avi
Format                           : AVI
Format/Info                      : Audio Video Interleave
File size                        : 1.37 GiB
Duration                         : 1h 20mn
Overall bit rate                 : 2 428 Kbps
Writing application              : VirtualDubMod 1.5.10.3 | www.virtualdub-fr.org || (build 2550/release)
Writing library                  : VirtualDubMod build 2550/release

Video
ID                               : 0
Format                           : MPEG-4 Visual
Format profile                   : Advanced Simple@L5
Format settings, BVOP            : 1
Format settings, QPel            : No
Format settings, GMC             : No warppoints
Format settings, Matrix          : Custom
Codec ID                         : XVID
Codec ID/Hint                    : XviD
Duration                         : 1h 20mn
Bit rate                         : 2 227 Kbps
Width                            : 720 pixels
Height                           : 304 pixels
Display aspect ratio             : 2.35:1
Frame rate                       : 25.000 fps
Color space                      : YUV
Chroma subsampling               : 4:2:0
Bit depth                        : 8 bits
Scan type                        : Progressive
Compression mode                 : Lossy
Bits/(Pixel*Frame)               : 0.407
Stream size                      : 1.26 GiB (92%)
Writing library                  : XviD 73

Audio
ID                               : 1
Format                           : AC-3
Format/Info                      : Audio Coding 3
Mode extension                   : CM (complete main)
Codec ID                         : 2000
Duration                         : 1h 20mn
Bit rate mode                    : Constant
Bit rate                         : 192 Kbps
Channel(s)                       : 2 channels
Channel positions                : Front: L R
Sampling rate                    : 48.0 KHz
Bit depth                        : 16 bits
Compression mode                 : Lossy
Stream size                      : 111 MiB (8%)
Alignment                        : Split accross interleaves
Interleave, duration             : 40 ms (1.00 video frame)
Interleave, preload duration     : 500 ms




Скриншоты:
[+] Всего файлов в раздаче - 1:
Полицейский с Рублёвки. Новогодний беспредел .2019.WEB-DLRip. Files-x.avi1.37 GB

Показать еще раздачи по запросу полицейский:
2020-02-15 U Полицейский с Рублёвки. Новогодний беспредел 2 (2019) WEB-DLRip от Portablius 743.96 MB ↑ 86 ↓ 33
2020-02-13 U Полицейский с Рублёвки. Новогодний беспредел 2 (2019) WEB-DLRip от GeneralFilm 1.09 GB ↑ 81 ↓ 61
2020-02-13 U Полицейский с Рублёвки. Новогодний беспредел 2 (2019) WEB-DLRip от Generalfilm | КПК 307.52 MB ↑ 53 ↓ 22
2020-02-13 U Полицейский с Рублёвки. Новогодний беспредел 2 (2019) WEB-DLRip-AVC от Files-х 1.37 GB ↑ 6 ↓ 27
2020-02-13 U Полицейский с Рублёвки. Новогодний беспредел 2 (2019) WEB-DLRip 1.37 GB ↑ 146 ↓ 68
2020-02-13 U Полицейский с Рублёвки. Новогодний беспредел 2 (2019) WEB-DL 1080p 2.64 GB ↑ 281 ↓ 181
2020-02-13 U Полицейский с Рублёвки. Новогодний беспредел-2 (2019) WEB-DL 720p от ExKinoRay 1.80 GB ↑ 136 ↓ 51

Отзывы
Зарегистрируйтесь чтобы добавить комментарий.
Обратная связь
Copyleft ©