↑↓torrent.by
Поиск
Логин: Регистрация
Пароль: Восстановить пароль

Большие надежды [01-06 из 08] (2020) WEBRip от Files-x

Скачать bolshie-nadezhdy-01-06-iz-08-2020-webrip-ot-files-x.torrent
U Магнитная ссылка Размер: 3.93 GB Раздают: 54 Качают: 72 Добавлен: 2020-02-13 15:13:32
Большие надежды   [01-06 из 08] (2020) WEBRip от Files-x

Название: Большие надежды
Год выпуска: 2020
Жанр:  Мелодрама
Режиссер: Юлия Краснова
В ролях: Татьяна Бабенкова, Анфиса Черных, Елена Яковлева, Евгений Антропов, Леонид Громов, Алексей Демидов, Василий Симонов, Ян Цапник, Кирилл Жандаров, Даниил Белых, Артём Осипов, Кирилл Сафонов, Олег Гаас, Евгений Сахаров

О фильме: История любви и невосполнимых потерь на фоне жизни страны в последние тридцать лет. Юные Эра и Зина, окрыленные большими надеждами, наперекор советам родителей отправляются в город за своей мечтой. Они многое пройдут рука об руку, смогут по-настоящему подружиться, похоронят наивность и иллюзии, переживут взлеты и падения. И поймут, что главное в жизни – сохранить любовь, веру в людей и надежду на лучшее, несмотря ни на что.

Выпущено: Россия
Студия:   Киностудия Маркес
Продолжительность: 6 x ~ 00:51:00
Перевод: Не требуется

Файл
Качество: WEBRip
Видео: XviD, ~ 1600 Кбит/с, 720x400
Аудио: AC3, 2 ch, 192 Кбит/с

Релиз:
[+] MediaInfo
General
Complete name                    : H:fiiles xБольшие надежды.2020.WEB-DLRip.Files-x2. Большие надежды.2020.WEB-DLRip.Files-x .avi
Format                           : AVI
Format/Info                      : Audio Video Interleave
File size                        : 649 MiB
Duration                         : 50mn 21s
Overall bit rate                 : 1 802 Kbps
Writing application              : VirtualDubMod 1.5.10.3 | www.virtualdub-fr.org || (build 2550/release)
Writing library                  : VirtualDubMod build 2550/release

Video
ID                               : 0
Format                           : MPEG-4 Visual
Format profile                   : Advanced Simple@L5
Format settings, BVOP            : 1
Format settings, QPel            : No
Format settings, GMC             : No warppoints
Format settings, Matrix          : Custom
Codec ID                         : XVID
Codec ID/Hint                    : XviD
Duration                         : 50mn 21s
Bit rate                         : 1 600 Kbps
Width                            : 720 pixels
Height                           : 400 pixels
Display aspect ratio             : 16:9
Frame rate                       : 25.000 fps
Color space                      : YUV
Chroma subsampling               : 4:2:0
Bit depth                        : 8 bits
Scan type                        : Progressive
Compression mode                 : Lossy
Bits/(Pixel*Frame)               : 0.222
Stream size                      : 576 MiB (89%)
Writing library                  : XviD 73

Audio
ID                               : 1
Format                           : AC-3
Format/Info                      : Audio Coding 3
Mode extension                   : CM (complete main)
Codec ID                         : 2000
Duration                         : 50mn 21s
Bit rate mode                    : Constant
Bit rate                         : 192 Kbps
Channel(s)                       : 2 channels
Channel positions                : Front: L R
Sampling rate                    : 48.0 KHz
Bit depth                        : 16 bits
Compression mode                 : Lossy
Stream size                      : 69.1 MiB (11%)
Alignment                        : Split accross interleaves
Interleave, duration             : 40 ms (1.00 video frame)
Interleave, preload duration     : 500 ms



Скриншоты:
[+] Всего файлов в раздаче - 6:
01. Большие надежды.2020.WEB-DLRip.Files-x .avi671.13 MB
02. Большие надежды.2020.WEB-DLRip.Files-x .avi648.78 MB
03. Большие надежды.2020.WEB-DLRip.Files-x .avi684.88 MB
04. Большие надежды.2020.WEB-DLRip.Files-x .avi672.85 MB
05. Большие надежды.2020.WEB-DLRip.Files-x .avi671.78 MB
06. Большие надежды.2020.WEB-DLRip.Files-x .avi670.92 MB

Показать еще раздачи по запросу большие:
2020-02-15 U Большие надежды [01-08 из 08] (2019) HDTVRip 720p от ExKinoRay 10.68 GB ↑ 48 ↓ 78
2020-02-14 U Большие надежды [01-08 из 08] (2020) WEBRip от Files-x 5.24 GB ↑ 123 ↓ 162
2020-02-14 U Большие надежды [01-08 из 08] (2020) WEBRip-AVC от Files-х 5.21 GB ↑ 65 ↓ 62
2020-02-13 U Большие надежды [01х01-08 из 08] (2020) SATRip-AVC 4.91 GB ↑ 8 ↓ 7
2020-02-13 U Большие надежды [01-06 из 08] (2019) HDTVRip 720p от ExKinoRay 8.00 GB ↑ 33 ↓ 64
2020-02-12 U Большие надежды [01-04 из 08] (2020) WEBRip от Files-x 2.61 GB ↑ 87 ↓ 67
2020-02-11 U Большие надежды [01-02 из 08] (2020) WEBRip от Files-x 1.29 GB ↑ 128 ↓ 41

Отзывы
Зарегистрируйтесь чтобы добавить комментарий.
Обратная связь
Copyleft ©