↑↓torrent.by
Поиск
Логин: Регистрация
Пароль: Восстановить пароль

Эверест / Abominable (2019) BDRip 720p от ExKinoRay | Лицензия

Скачать everest-abominable-2019-bdrip-720p-ot-exkinoray-licenziya.torrent
U Магнитная ссылка Размер: 4.61 GB Раздают: 49 Качают: 24 Добавлен: 2020-02-13 15:13:50
Эверест / Abominable (2019) BDRip 720p от ExKinoRay | Лицензия

Название: Эверест
Оригинальное название: Abominable
Год выхода: 2019
Жанр: Мультфильм, фэнтези, комедия, приключения, семейный, полнометражный
Режиссер: Джилл Калтон, Тодд Вилдерман
В ролях: Хлоя Беннет, Альберт Цай, Тензинг Норгай Трэйнор, Джозеф Иццо, Эдди Иззард, Сара Полсон, Цай Чинь, Мишель Вонг, Рич Дитль, Джеймс Хонг

Описание:   Путешествие на самую высокую точку мира? Что может быть круче! Так решает Лу, когда случайно находит огромное, но очень милое чудовище посреди шумного мегаполиса. Пусть их преследуют ученые из сверхсекретной лаборатории, зато её новый друг умеет смешить и творить чудеса. Лу уверена, что поможет дружелюбному йети вернуться домой - на Эверест.

Страна: Китай, США
Студия: DreamWorks Animation, Pearl Studio
Продолжительность: 01:37:12
Перевод: Дублированный | Лицензия BD 3D EUR

Формат: MKV
Качество: BDRip 720p
Видео: MPEG-4 AVC, 1280x694, 5500 Kbit/s, 23.976 fps
Аудио #01: 48 kHz, AC3, 5.1, 640 Kbps | Лицензия | RUS |
Аудио #02: 48 kHz, AC3, 5.1, 640 Kbps | Оригинал |  ENG |
Субтитры: Русские (Forced, full), английские

Релиз:


[+] MI
General
Unique ID                                : 174566814135902304923508382249219382913 (0x83545870552E32F7920AC8E25061DE81)
Complete name                            : C:Abominable.2019.BDRip.720p.ExKinoRay.mkv
Format                                   : Matroska
Format version                           : Version 2
File size                                : 4.61 GiB
Duration                                 : 1 h 37 min
Overall bit rate                         : 6 782 kb/s
Movie name                               : Abominable 2019 from ExKinoRay
Encoded date                             : UTC 2020-02-13 01:52:07
Writing application                      : mkvmerge v5.6.0 ('Kenya Kane') built on May 27 2012 16:44:04
Writing library                          : libebml v1.2.3 + libmatroska v1.3.0

Video
ID                                       : 1
Format                                   : AVC
Format/Info                              : Advanced Video Codec
Format profile                           : High@L4.1
Format settings, CABAC                   : Yes
Format settings, ReFrames                : 9 frames
Codec ID                                 : V_MPEG4/ISO/AVC
Duration                                 : 1 h 37 min
Bit rate                                 : 5 500 kb/s
Width                                    : 1 280 pixels
Height                                   : 694 pixels
Display aspect ratio                     : 1.85:1
Frame rate mode                          : Constant
Frame rate                               : 23.976 (24000/1001) FPS
Color space                              : YUV
Chroma subsampling                       : 4:2:0
Bit depth                                : 8 bits
Scan type                                : Progressive
Bits/(Pixel*Frame)                       : 0.258
Stream size                              : 3.64 GiB (79%)
Title                                    : Encoded by seleZen
Writing library                          : x264 core 148 r2705kMod 3f5ed56
Encoding settings                        : cabac=1 / ref=9 / deblock=1:-2:-2 / analyse=0x3:0x113 / me=umh / subme=11 / psy=1 / fade_compensate=0.00 / psy_rd=1.01:0.01 / mixed_ref=1 / me_range=32 / chroma_me=1 / trellis=2 / 8x8dct=1 / cqm=0 / deadzone=21,11 / fast_pskip=0 / chroma_qp_offset=-3 / threads=22 / lookahead_threads=5 / sliced_threads=0 / nr=0 / decimate=0 / interlaced=0 / bluray_compat=0 / constrained_intra=0 / fgo=0 / bframes=10 / b_pyramid=2 / b_adapt=2 / b_bias=0 / direct=3 / weightb=1 / open_gop=0 / weightp=2 / keyint=240 / keyint_min=23 / scenecut=40 / intra_refresh=0 / rc_lookahead=50 / rc=2pass / mbtree=0 / bitrate=5500 / ratetol=1.0 / qcomp=0.60 / qpmin=0 / qpmax=51 / qpstep=4 / cplxblur=20.0 / qblur=0.5 / vbv_maxrate=50000 / vbv_bufsize=62500 / nal_hrd=none / filler=0 / ip_ratio=1.40 / pb_ratio=1.30 / aq=3:0.80
Language                                 : English
Default                                  : Yes
Forced                                   : No

Audio #1
ID                                       : 2
Format                                   : AC-3
Format/Info                              : Audio Coding 3
Mode extension                           : CM (complete main)
Format settings, Endianness              : Big
Codec ID                                 : A_AC3
Duration                                 : 1 h 37 min
Bit rate mode                            : Constant
Bit rate                                 : 640 kb/s
Channel(s)                               : 6 channels
Channel positions                        : Front: L C R, Side: L R, LFE
Sampling rate                            : 48.0 kHz
Frame rate                               : 31.250 FPS (1536 spf)
Compression mode                         : Lossy
Stream size                              : 445 MiB (9%)
Title                                    : Dub BD 3D EUR
Language                                 : Russian
Default                                  : Yes
Forced                                   : No

Audio #2
ID                                       : 3
Format                                   : AC-3
Format/Info                              : Audio Coding 3
Mode extension                           : CM (complete main)
Format settings, Endianness              : Big
Codec ID                                 : A_AC3
Duration                                 : 1 h 37 min
Bit rate mode                            : Constant
Bit rate                                 : 640 kb/s
Channel(s)                               : 6 channels
Channel positions                        : Front: L C R, Side: L R, LFE
Sampling rate                            : 48.0 kHz
Frame rate                               : 31.250 FPS (1536 spf)
Compression mode                         : Lossy
Stream size                              : 445 MiB (9%)
Title                                    : Original
Language                                 : English
Default                                  : No
Forced                                   : No

Text #1
ID                                       : 4
Format                                   : UTF-8
Codec ID                                 : S_TEXT/UTF8
Codec ID/Info                            : UTF-8 Plain Text
Title                                    : Forced
Language                                 : Russian
Default                                  : Yes
Forced                                   : Yes

Text #2
ID                                       : 5
Format                                   : UTF-8
Codec ID                                 : S_TEXT/UTF8
Codec ID/Info                            : UTF-8 Plain Text
Title                                    : Full [by sub.Trader]
Language                                 : Russian
Default                                  : No
Forced                                   : No

Text #3
ID                                       : 6
Format                                   : UTF-8
Codec ID                                 : S_TEXT/UTF8
Codec ID/Info                            : UTF-8 Plain Text
Title                                    : Full
Language                                 : English
Default                                  : No
Forced                                   : No

Menu
00:00:00.000                             : en:Глава 01
00:04:11.835                             : en:Глава 02
00:09:10.884                             : en:Глава 03
00:13:42.238                             : en:Глава 04
00:16:13.598                             : en:Глава 05
00:21:34.752                             : en:Глава 06
00:25:02.459                             : en:Глава 07
00:29:30.435                             : en:Глава 08
00:33:57.452                             : en:Глава 09
00:36:43.785                             : en:Глава 10
00:41:53.010                             : en:Глава 11
00:46:30.705                             : en:Глава 12
00:50:42.331                             : en:Глава 13
00:56:31.555                             : en:Глава 14
01:01:40.530                             : en:Глава 15
01:06:33.198                             : en:Глава 16
01:11:44.425                             : en:Глава 17
01:15:26.355                             : en:Глава 18
01:20:41.545                             : en:Глава 19
01:26:44.408                             : en:Глава 20




Скриншоты:
[+] Всего файлов в раздаче - 1:
Abominable.2019.BDRip.720p.ExKinoRay.mkv4.61 GB

Показать еще раздачи по запросу эверест:
2020-02-15 U Эверест / Abominable (2019) BDRip-AVC от OlLanDGroup | Лицензия 1.72 GB ↑ 49 ↓ 11
2020-02-13 U Эверест / Abominable (2019) BDRip от MegaPeer | Лицензия 1.46 GB ↑ 28 ↓ 11
2019-12-14 U Эверест / Abominable (2019) BDRip-AVC от OlLanDGroup | iTunes 1.67 GB ↑ 178 ↓ 32
2019-12-12 U Эверест / Abominable (2019) HDRip от Scarabey | iTunes 1.40 GB ↑ 77 ↓ 12
2019-12-11 U Эверест / Abominable (2019) BDRip-AVC от ExKinoRay | iTunes 2.40 GB ↑ 65 ↓ 26
2019-12-10 U Эверест / Єті / Abominable (2019) WEB-DLRip | D | UKR 1К1.47 GB ↑ 46 ↓ 7
2019-12-10 U Эверест / Abominable (2019) BDRip 1080p | iTunes 1К10.73 GB ↑ 60 ↓ 28

Отзывы
Зарегистрируйтесь чтобы добавить комментарий.
Обратная связь
Copyleft ©