↑↓torrent.by
Поиск
Логин: Регистрация
Пароль: Восстановить пароль

Полицейский с Рублёвки. Новогодний беспредел 2 (2019) WEB-DLRip от GeneralFilm

Скачать policeyskiy-s-rublevki-novogodniy-bespredel-2-2019-web-dlrip-ot-generalfilm.torrent
U Магнитная ссылка Размер: 1.09 GB Раздают: 101 Качают: 61 Добавлен: 2020-02-13 17:44:31
Полицейский с Рублёвки. Новогодний беспредел 2 (2019) WEB-DLRip от GeneralFilm

Оригинальное название: Полицейский с Рублёвки. Новогодний беспредел 2
Год выпуска: 2019
Жанр:  Комедия
Выпущено: Россия, Legio Felix
Режиссер: Илья Куликов
В ролях: Сергей Бурунов, Рина Гришина, Сергей Штатнов, Светлана Суханова, Роман Попов, Александра Бортич, Софья Каштанова, Ирина Вилкова, Ростислав Гулбис, Александр Дерепко, Юрий Брешин, Сергей Селин

О фильме: Близится Новый год, и сотрудники отдела полиции Барвихи планируют праздновать его за городом в компании старых друзей и коллег. Но непредвиденные обстоятельства в лице преступников, ограбивших крупное ювелирное предприятие, ставят праздник под угрозу. Смогут ли рублёвские полицейские вернуть украденные драгоценные камни стоимостью в миллионы долларов и спасти Новый год до того, как часы пробьют полночь?

Качество: WEB-DLRip
Видео: XviD build 73, 720x400 (16:9), 25.000 fps, 1722 Kbps (0.315 bit/pixel)
Аудио: 48.0 kHz, AC3, 2/0 ch, 192 kbps
Продолжительность: 01:20:55
Перевод: Не требуется [Русский]
Cубтитры: нет

Релиз:
[+] MediaInfo
General
Complete name               : D:RazdachiNovogodnij.Bespredel.2.2019.WEB-DLRip.GeneralFilm.avi
Format                      : AVI
Format/Info                 : Audio Video Interleave
File size                   : 1.09 GiB
Duration                    : 1 h 20 min
Overall bit rate            : 1 924 kb/s
Writing application         : VirtualDubMod 1.5.10.3 | www.virtualdub-fr.org || (build 2550/release)
Writing library             : VirtualDubMod build 2550/release

Video
ID                          : 0
Format                      : MPEG-4 Visual
Format profile              : Advanced Simple@L5
Format settings             : BVOP1 / Custom Matrix
Format settings, BVOP       : 1
Format settings, QPel       : No
Format settings, GMC        : No warppoints
Format settings, Matrix     : Custom
Codec ID                    : XVID
Codec ID/Hint               : XviD
Duration                    : 1 h 20 min
Bit rate                    : 1 722 kb/s
Width                       : 720 pixels
Height                      : 304 pixels
Display aspect ratio        : 2.35:1
Frame rate                  : 25.000 FPS
Color space                 : YUV
Chroma subsampling          : 4:2:0
Bit depth                   : 8 bits
Scan type                   : Progressive
Compression mode            : Lossy
Bits/(Pixel*Frame)          : 0.315
Stream size                 : 997 MiB (90%)
Writing library             : XviD 73

Audio
ID                          : 1
Format                      : AC-3
Format/Info                 : Audio Coding 3
Commercial name             : Dolby Digital
Codec ID                    : 2000
Duration                    : 1 h 20 min
Bit rate mode               : Constant
Bit rate                    : 192 kb/s
Channel(s)                  : 2 channels
Channel layout              : L R
Sampling rate               : 48.0 kHz
Frame rate                  : 31.250 FPS (1536 SPF)
Compression mode            : Lossy
Stream size                 : 111 MiB (10%)
Alignment                   : Split across interleaves
Interleave, duration        : 40  ms (1.00 video frame)
Interleave, preload duratio : 500  ms
Service kind                : Complete Main



Скриншоты:
[+] Всего файлов в раздаче - 1:
Novogodnij.Bespredel.2.2019.WEB-DLRip.GeneralFilm.avi1.09 GB

Показать еще раздачи по запросу полицейский:
2020-02-22 U Полицейский роман [01-02 из 02] (2019) WEB-DLRip-AVC от Files-x 1.14 GB ↑ 58 ↓ 15
2020-02-22 U Полицейский роман [01-02 из 02] (2019) WEB-DLRip от Files-x 1.15 GB ↑ 180 ↓ 39
2020-02-21 U Полицейский роман [01х01-02 из 02] (2020) SATRip-AVC 1.06 GB ↑ 17 ↓ 5
2020-02-15 U Полицейский с Рублёвки. Новогодний беспредел 2 (2019) WEB-DLRip от Portablius 743.96 MB ↑ 111 ↓ 40
2020-02-13 U Полицейский с Рублёвки. Новогодний беспредел 2 (2019) WEB-DLRip от Generalfilm | КПК 307.52 MB ↑ 54 ↓ 22
2020-02-13 U Полицейский с Рублёвки. Новогодний беспредел 2 (2019) WEB-DLRip от Files-x 1.37 GB ↑ 158 ↓ 72
2020-02-13 U Полицейский с Рублёвки. Новогодний беспредел 2 (2019) WEB-DLRip-AVC от Files-х 1.37 GB ↑ 11 ↓ 28

Отзывы
Зарегистрируйтесь чтобы добавить комментарий.
Обратная связь
Copyleft ©