↑↓torrent.by
Поиск
Логин: Регистрация
Пароль: Восстановить пароль

Война семей [01-05] (2019) WEB-DLRip от Files-x

Скачать voyna-semey-01-05-2019-web-dlrip-ot-files-x.torrent
U Магнитная ссылка Размер: 1.46 GB Раздают: 49 Качают: 57 Добавлен: 2020-02-13 17:44:37
Война семей   [01-05] (2019) WEB-DLRip от Files-x

Название: Война семей
Год выпуска: 2019
Жанр:  Комедия
Режиссер: Илья Фарфель, Евгений Корчагин
В ролях: Егор Бероев, Александр Робак, Ольга Медынич, Светлана Колпакова, Арина Постникова, Арам Вардеванян, Пелагея Невзорова, Александра Флоринская, Алиса Клагиш, Джемал Тетруашвили, Любовь Тищенко (II), Юлия Томашевская, Юрий Скулябин, Елизавета Мазалова

О фильме: Миша и Дима – друзья с детства. Общий бизнес, соседние дома без забора, дружба семьями – идиллия, которою, как казалось, невозможно разрушить. Грядущая свадьба детей должна была укрепить многолетний союз. Однако во время семейного торжества неожиданно вскрываются тайны, которые в один миг превращают лучших друзей в заклятых врагов.

Выпущено: Россия
Студия:   СУПЕР продакшн, Киностудия "Yellow, Black and White"
Продолжительность: 5 х ~ 00:23:00
Перевод: Не требуется

Файл
Качество: WEB-DLRip
Видео: XviD, ~ 1600 Кбит/с, 720x400
Аудио: AC3, 2 ch, 192 Кбит/с

Релиз:


[+] MediaInfo
General
Complete name                    : H:fiiles xВойна семей.2019 WEB-DLRip.Files-x2. Война семей.2019.WEB-DLRip.Files-x.avi
Format                           : AVI
Format/Info                      : Audio Video Interleave
File size                        : 293 MiB
Duration                         : 22mn 42s
Overall bit rate                 : 1 802 Kbps
Writing application              : VirtualDubMod 1.5.10.3 | www.virtualdub-fr.org || (build 2550/release)
Writing library                  : VirtualDubMod build 2550/release

Video
ID                               : 0
Format                           : MPEG-4 Visual
Format profile                   : Advanced Simple@L5
Format settings, BVOP            : 1
Format settings, QPel            : No
Format settings, GMC             : No warppoints
Format settings, Matrix          : Custom
Codec ID                         : XVID
Codec ID/Hint                    : XviD
Duration                         : 22mn 42s
Bit rate                         : 1 600 Kbps
Width                            : 720 pixels
Height                           : 400 pixels
Display aspect ratio             : 16:9
Frame rate                       : 25.000 fps
Color space                      : YUV
Chroma subsampling               : 4:2:0
Bit depth                        : 8 bits
Scan type                        : Progressive
Compression mode                 : Lossy
Bits/(Pixel*Frame)               : 0.222
Stream size                      : 260 MiB (89%)
Writing library                  : XviD 73

Audio
ID                               : 1
Format                           : AC-3
Format/Info                      : Audio Coding 3
Mode extension                   : CM (complete main)
Codec ID                         : 2000
Duration                         : 22mn 42s
Bit rate mode                    : Constant
Bit rate                         : 192 Kbps
Channel(s)                       : 2 channels
Channel positions                : Front: L R
Sampling rate                    : 48.0 KHz
Bit depth                        : 16 bits
Compression mode                 : Lossy
Stream size                      : 31.2 MiB (11%)
Alignment                        : Split accross interleaves
Interleave, duration             : 40 ms (1.00 video frame)
Interleave, preload duration     : 500 ms




Скриншоты:
[+] Всего файлов в раздаче - 5:
01. Война семей.2019.WEB-DLRip.Files-x.avi292.63 MB
02. Война семей.2019.WEB-DLRip.Files-x.avi292.66 MB
03. Война семей.2019.WEB-DLRip.Files-x.avi304.87 MB
04. Война семей.2019.WEB-DLRip.Files-x.avi296.16 MB
05. Война семей.2019.WEB-DLRip.Files-x.avi310.68 MB

Показать еще раздачи по запросу война:
Вчера U Война семей [01-12 из 20] (2019) WEB-DLRip 3.52 GB ↑ 139 ↓ 275
2020-02-23 U Война семей [01-12 из 20] (2019) WEB-DL 1080p 9.04 GB ↑ 174 ↓ 564
2020-02-23 U Война семей [01-12 из 20] (2019) WEB-DLRip от GeneralFilm 3.27 GB ↑ 25 ↓ 129
2020-02-23 U Война семей [01-12 из 20] (2019) WEB-DL 720p от ExKinoRay 6.15 GB ↑ 55 ↓ 232
2020-02-22 U Война семей [01-11 из 20] (2019) WEB-DLRip 3.22 GB ↑ 37 ↓ 215
2020-02-22 U Война семей [01-11 из 20] (2019) WEB-DL 1080p 8.28 GB ↑ 103 ↓ 373
2020-02-22 U Война семей [01-11 из 20] (2019) WEB-DL 720p от ExKinoRay 5.63 GB ↑ 88 ↓ 378

Отзывы
Зарегистрируйтесь чтобы добавить комментарий.
Обратная связь
Copyleft ©