↑↓torrent.by
Поиск
Логин: Регистрация
Пароль: Восстановить пароль

Холодное сердце 2 / Frozen II (2019) BDRip 720p от селезень | iTunes

Скачать holodnoe-serdce-2-frozen-ii-2019-bdrip-720p-ot-selezen-itunes.torrent
U Магнитная ссылка Размер: 3.88 GB Раздают: 135 Качают: 92 Добавлен: 2020-02-14 06:43:47
Холодное сердце 2 / Frozen II (2019) BDRip 720p от селезень | iTunes

Название: Холодное сердце 2
Оригинальное название: Frozen II
Год выхода: 2019
Жанр: Мультфильм, мюзикл, фэнтези, комедия, приключения, семейный, полнометражный
Режиссер: Крис Бак, Дженнифер Ли
В ролях: Идина Мензел, Кристен Белл, Джонатан Грофф, Джош Гэд, Стерлинг К. Браун, Эван Рэйчел Вуд, Альфред Молина, Марта Плимптон, Джейсон Риттер, Рэйчел Мэттьюз

О фильме: Анна, Эльза, Кристоф, его верный олень Свен и никогда не унывающий снеговик Олаф должны будут покинуть уютное королевство Эренделл и отправиться ещё дальше на север, в путешествие, которое приведет их к истокам древних легенд и поможет раскрыть тайны, касающиеся прошлого их родной страны.

Страна: США
Студия: Walt Disney Animation Studios, Walt Disney Pictures
Продолжительность: 01:43:14
Перевод: Дублированный | iTunes

Качество: BDRip 720p
Видео: MPEG-4 AVC, 1280x536, 4353 Кbit/s, 23.976 fps
Аудио #01: 48 kHz, AC3, 5.1, 384 Kbps | iTunes | RUS |
Аудио #02: 48 kHz, AC3, 5.1, 640 Kbps | Оригинал |  ENG |
Субтитры: Русские (Full, SDH), английские

Релиз:


[+] MI
General
Unique ID                   : 232733948192268410815863960199178390490 (0xAF16ED90BEED31243F6CEC1B43B68BDA)
Complete name               : E:Video111Frozen.II.2019.BDRip.720p.seleZen.mkv
Format                      : Matroska
Format version              : Version 4
File size                   : 3.88 GiB
Duration                    : 1 h 43 min
Overall bit rate            : 5 380 kb/s
Movie name                  : Frozen.II.2019 from селезень
Encoded date                : UTC 2020-02-13 19:54:35
Writing application         : mkvmerge v40.0.0 ('Old Town Road + Pony') 64-bit
Writing library             : libebml v1.3.9 + libmatroska v1.5.2

Video
ID                          : 1
Format                      : AVC
Format/Info                 : Advanced Video Codec
Format profile              : High@L4.1
Format settings             : CABAC / 12 Ref Frames
Format settings, CABAC      : Yes
Format settings, Reference  : 12 frames
Codec ID                    : V_MPEG4/ISO/AVC
Duration                    : 1 h 43 min
Bit rate                    : 4 353 kb/s
Width                       : 1 280 pixels
Height                      : 536 pixels
Display aspect ratio        : 2.40:1
Frame rate mode             : Constant
Frame rate                  : 23.976 (24000/1001) FPS
Color space                 : YUV
Chroma subsampling          : 4:2:0
Bit depth                   : 8 bits
Scan type                   : Progressive
Bits/(Pixel*Frame)          : 0.265
Stream size                 : 3.14 GiB (81%)
Writing library             : x264 core 158 r2984+49 6932f4a t_mod_New [0-bit@all X86_64]
Encoding settings           : cabac=1 / ref=12 / deblock=1:-3:-3 / analyse=0x3:0x133 / me=umh / subme=10 / psy=1 / fade_compensate=0.00 / psy_rd=1.00:0.00 / mixed_ref=1 / me_range=32 / chroma_me=1 / trellis=2 / 8x8dct=1 / cqm=0 / deadzone=21,11 / fast_pskip=0 / chroma_qp_offset=-2 / threads=16 / lookahead_threads=4 / sliced_threads=0 / nr=0 / decimate=0 / interlaced=0 / bluray_compat=0 / constrained_intra=0 / fgo=0 / bframes=12 / b_pyramid=2 / b_adapt=2 / b_bias=0 / direct=3 / weightb=1 / open_gop=0 / weightp=2 / keyint=480 / keyint_min=24 / scenecut=40 / intra_refresh=0 / rc_lookahead=80 / rc=crf / mbtree=0 / crf=15.0000 / qcomp=0.60 / qpmin=0:0:0 / qpmax=69:69:69 / qpstep=4 / vbv_maxrate=62500 / vbv_bufsize=78125 / crf_max=0.0 / nal_hrd=none / filler=0 / ip_ratio=1.30 / pb_ratio=1.20 / aq=3:0.80 / aq-sensitivity=10.00 / aq-factor=1.00:1.00:1.00 / aq2=0 / aq3=0
Language                    : English
Default                     : Yes
Forced                      : No
Color range                 : Limited
Color primaries             : BT.709
Transfer characteristics    : BT.709
Matrix coefficients         : BT.709

Audio #1
ID                          : 2
Format                      : AC-3
Format/Info                 : Audio Coding 3
Commercial name             : Dolby Digital
Codec ID                    : A_AC3
Duration                    : 1 h 43 min
Bit rate mode               : Constant
Bit rate                    : 384 kb/s
Channel(s)                  : 6 channels
Channel layout              : L R C LFE Ls Rs
Sampling rate               : 48.0 kHz
Frame rate                  : 31.250 FPS (1536 SPF)
Compression mode            : Lossy
Stream size                 : 283 MiB (7%)
Title                       : iTunes
Language                    : Russian
Service kind                : Complete Main
Default                     : Yes
Forced                      : Yes

Audio #2
ID                          : 3
Format                      : AC-3
Format/Info                 : Audio Coding 3
Commercial name             : Dolby Digital
Codec ID                    : A_AC3
Duration                    : 1 h 43 min
Bit rate mode               : Constant
Bit rate                    : 640 kb/s
Channel(s)                  : 6 channels
Channel layout              : L R C LFE Ls Rs
Sampling rate               : 48.0 kHz
Frame rate                  : 31.250 FPS (1536 SPF)
Compression mode            : Lossy
Stream size                 : 473 MiB (12%)
Title                       : Original
Language                    : English
Service kind                : Complete Main
Default                     : No
Forced                      : No

Text #1
ID                          : 4
Format                      : UTF-8
Codec ID                    : S_TEXT/UTF8
Codec ID/Info               : UTF-8 Plain Text
Duration                    : 1 h 41 min
Bit rate                    : 72 b/s
Count of elements           : 1312
Stream size                 : 53.9 KiB (0%)
Title                       : Full
Language                    : Russian
Default                     : No
Forced                      : No

Text #2
ID                          : 5
Format                      : UTF-8
Codec ID                    : S_TEXT/UTF8
Codec ID/Info               : UTF-8 Plain Text
Duration                    : 1 h 42 min
Bit rate                    : 95 b/s
Count of elements           : 1810
Stream size                 : 71.6 KiB (0%)
Title                       : SDH
Language                    : Russian
Default                     : No
Forced                      : No

Text #3
ID                          : 6
Format                      : UTF-8
Codec ID                    : S_TEXT/UTF8
Codec ID/Info               : UTF-8 Plain Text
Duration                    : 1 h 41 min
Bit rate                    : 56 b/s
Count of elements           : 1560
Stream size                 : 42.0 KiB (0%)
Title                       : Full
Language                    : English
Default                     : No
Forced                      : No

Text #4
ID                          : 7
Format                      : UTF-8
Codec ID                    : S_TEXT/UTF8
Codec ID/Info               : UTF-8 Plain Text
Duration                    : 1 h 42 min
Bit rate                    : 68 b/s
Count of elements           : 1930
Stream size                 : 51.2 KiB (0%)
Title                       : SDH
Language                    : English
Default                     : No
Forced                      : No

Menu
00:00:00.000                : en:Chapter 1
00:05:42.592                : en:Chapter 2
00:08:27.716                : en:Chapter 3
00:15:01.400                : en:Chapter 4
00:16:29.655                : en:Chapter 5
00:21:25.117                : en:Chapter 6
00:25:45.252                : en:Chapter 7
00:29:08.914                : en:Chapter 8
00:33:45.023                : en:Chapter 9
00:40:27.216                : en:Chapter 10
00:44:37.925                : en:Chapter 11
00:47:42.318                : en:Chapter 12
00:53:04.515                : en:Chapter 13
00:55:27.241                : en:Chapter 14
01:02:36.711                : en:Chapter 15
01:09:57.527                : en:Chapter 16
01:13:48.382                : en:Chapter 17
01:19:26.637                : en:Chapter 18
01:24:28.146                : en:Chapter 19
01:31:17.263                : en:Chapter 20



Скриншоты:
[+] Всего файлов в раздаче - 1:
Frozen.II.2019.BDRip.720p.seleZen.mkv3.88 GB

Показать еще раздачи по запросу холодное:
2020-02-21 U Холодное сердце 2 / Frozen II (2019) BDRip-HEVC 1080p от HEVC-CLUB | iTunes 4.70 GB ↑ 55 ↓ 38
2020-02-18 U Холодное сердце 2 / Frozen II (2019) HDRip от Scarabey | iTunes 1.40 GB ↑ 63 ↓ 21
2020-02-17 U Холодное сердце 2 / Frozen II (2019) BDRemux 1080p от селезень | iTunes 19.88 GB ↑ 30 ↓ 25
2020-02-15 U Холодное сердце 2 / Frozen II (2019) HDRip-AVC от OlLanDGroup | iTunes 746.13 MB ↑ 84 ↓ 19
2020-02-14 U Холодное сердце 2 / Frozen II (2019) UHD BDRemux 2160p от селезень | 4K | HDR | iTunes 50.62 GB ↑ 64 ↓ 272
2020-02-14 U Холодное сердце 2 / Frozen II (2019) BDRip-HEVC 2160p | HDR | iTunes 5.08 GB ↑ 49 ↓ 30
2020-02-14 U Холодное сердце 2 / Frozen II (2019) HDRip от MegaPeer | iTunes 1.46 GB ↑ 211 ↓ 113

Отзывы
Зарегистрируйтесь чтобы добавить комментарий.
Обратная связь
Copyleft ©