↑↓torrent.by
Поиск
Логин: Регистрация
Пароль: Восстановить пароль

Триггер [01-04 из 16] (2018) HDTVRip от GeneralFilm

Скачать trigger-01-04-iz-16-2018-hdtvrip-ot-generalfilm.torrent
U Магнитная ссылка Размер: 2.46 GB Раздают: 98 Качают: 215 Добавлен: 2020-02-14 06:43:54
Триггер [01-04 из 16] (2018) HDTVRip от GeneralFilm

Год выпуска: 2018
Жанр:  Драма
Выпущено: Россия, Кинокомпания «Среда» для Первого канала
Режиссер: Дмитрий Тюрин
В ролях: Максим Матвеев, Игорь Костолевский, Светлана Иванова, Виктория Маслова, Роман Маякин, Владислав Тирон, Ангелина Стречина, Марк Юсеф, Данила Дунаев, Ян Цапник, Даниил Воробьёв, Янина Малинчик, Олег Масленников-Войтов, Дарья Буткеева, Маруся Пестунова, Екатерина Соломатина, Хельга Филиппова, Екатерина Соколова-Жубер, Лиза Климова, Мария Ахметзянова, Антон Денисенко, Антонина Паперная, Сергей Гурьев, Максим Костромыкин, Екатерина Копанова, Олег Каменщиков

О фильме: Артем Стрелецкий – психолог, профессиональный провокатор, практикующий «шоковый» метод психотерапии. Большинство психологов «нянчатся» с клиентами, по полгода выслушивают жалобы на жизнь, сочувствуют – и получают кругленькие суммы за курс сеансов. Артем провоцирует клиентов, оскорбляет их, смеется над ними, специально подстраивает неловкие ситуации и намеренно выталкивает из зоны психологического комфорта. Провокации активируют в психике человека желание немедленно разобраться со своими проблемами, и решение находится очень быстро – буквально за один-два сеанса. Практика Артема процветает, пока один из клиентов Стрелецкого не накладывает на себя руки. Выйдя на свободу после четырехлетнего заключения по делу о доведении до самоубийства, Артем твёрдо намеревается всё исправить – доказать свою невиновность и вернуть любимую жену Дашу...

Качество: HDTVRip
Видео: XviD, ~ 1600 Кбит/с, 720х400, 25 кадр/с
Аудио: Русский (AC3, 2 ch, 192 Кбит/с)
Продолжительность: 4 х ~ 00:50:00
Перевод: Не требуется
Субтитры: нет

Релиз:


[+] MediaInfo

Общее
Полное имя                               : D:Trigger.HDTVRip.GeneralFilm1.Trigger.HDTVRip.GeneralFilm.avi
Формат                                   : AVI
Формат/Информация                        : Audio Video Interleave
Размер файла                             : 642 Мбайт
Продолжительность                        : 49 м.
Общий поток                              : 1801 Кбит/сек
Программа кодирования                    : VirtualDubMod 1.5.10.3 | www.virtualdub-fr.org || (build 2550/release)
Библиотека кодирования                   : VirtualDubMod build 2550/release

Видео
Идентификатор                            : 0
Формат                                   : MPEG-4 Visual
Профиль формата                          : Advanced Simple@L5
Параметр BVOP формата                    : 1
Параметр QPel формата                    : Нет
Параметр GMC формата                     : Без точки перехода
Параметр матрицы формата                 : Выборочная
Идентификатор кодека                     : XVID
Идентификатор кодека/Подсказка           : XviD
Продолжительность                        : 49 м.
Битрейт                                  : 1600 Кбит/сек
Ширина                                   : 720 пикселей
Высота                                   : 400 пикселей
Соотношение сторон                       : 16:9
Частота кадров                           : 25,000 кадров/сек
Цветовое пространство                    : YUV
Субдискретизация насыщенности            : 4:2:0
Битовая глубина                          : 8 бит
Тип развёртки                            : Прогрессивная
Метод сжатия                             : С потерями
Бит/(Пиксели*Кадры)                      : 0.222
Размер потока                            : 570 Мбайт (89%)
Библиотека кодирования                   : XviD 1.2.1 (UTC 2008-12-04)

Аудио
Идентификатор                            : 1
Формат                                   : AC-3
Формат/Информация                        : Audio Coding 3
Расширение режима                        : CM (complete main)
Параметр Endianness формата              : Big
Идентификатор кодека                     : 2000
Продолжительность                        : 49 м.
Вид битрейта                             : Постоянный
Битрейт                                  : 192 Кбит/сек
Каналы                                   : 2 канала
Расположение каналов                     : Front: L R
Частота                                  : 48,0 КГц
Битовая глубина                          : 16 бит
Метод сжатия                             : С потерями
Размер потока                            : 68,4 Мбайт (11%)
Выравнивание                             : Разделение по промежуткам
Продолжительность промежутка             : 40  мс. (1,00 видеокадр)
Время предзагрузки промежутка            : 500  мс.




Скриншоты:
[+] Всего файлов в раздаче - 4:
01.Trigger.HDTVRip.GeneralFilm.avi641.85 MB
02.Trigger.HDTVRip.GeneralFilm.avi622.89 MB
03.Trigger.HDTVRip.GeneralFilm.avi630.49 MB
04.Trigger.HDTVRip.GeneralFilm.avi625.18 MB

Показать еще раздачи по запросу триггер:
2020-02-21 U Триггер [01-08 из 16] (2018) HDTV 1080i от GeneralFilm 16.30 GB ↑ 46 ↓ 108
2020-02-21 U Триггер [01-08 из 16] (2018) HDTVRip 720p от GeneralFilm 9.98 GB ↑ 45 ↓ 104
2020-02-21 U Триггер [01-08 из 16] (2018) HDTVRip от GeneralFilm 4.87 GB ↑ 104 ↓ 245
2020-02-20 U Триггер [01х01-08 из 16] (2019) SATRip-AVC 4.58 GB ↑ 2 ↓ 5
2020-02-20 U Триггер [01-07 из 16] (2018) HDTVRip 720p от GeneralFilm 8.77 GB ↑ 61 ↓ 242
2020-02-19 U Триггер [01-06 из 16] (2018) HDTV 1080i от GeneralFilm 12.85 GB ↑ 35 ↓ 89
2020-02-19 U Триггер [01-06 из 16] (2018) HDTVRip 720p от GeneralFilm 7.54 GB ↑ 17 ↓ 61

Отзывы
Зарегистрируйтесь чтобы добавить комментарий.
Обратная связь
Copyleft ©