↑↓torrent.by
Поиск
Логин: Регистрация
Пароль: Восстановить пароль

Джей и молчаливый Боб: Перезагрузка / Jay and Silent Bob Reboot (2019) BDRip-AVC от DrVampir | P, L2, A

Скачать dzhey-i-molchalivyy-bob-perezagruzka-jay-and-silent-reboot-2019-bdrip-avc-ot-drvampir-p-l2-a.torrent
U Магнитная ссылка Размер: 2.18 GB Раздают: 63 Качают: 11 Добавлен: 2020-02-14 06:44:33
Джей и молчаливый Боб: Перезагрузка / Jay and Silent Bob Reboot (2019) BDRip-AVC от DrVampir | P, L2, A

Название: Джей и молчаливый Боб: Перезагрузка
Оригинальное название: Jay and Silent Bob Reboot
Год выхода: 2019
Жанр: Комедия
Режиссер: Кевин Смит
В ролях: Джейсон Мьюз, Кевин Смит, Мэтт Дэймон, Крис Хемсворт, Бен Аффлек, Мелисса Бенойст, Вэл Килмер, Розарио Доусон, Джо Манганьелло, Джеймс Ван Дер Бик, Харли Куинн Смит, Шеннон Элизабет, Дидрих Бадер и др.

О фильме:
Неугомонные приятели Джей и Молчаливый Боб попадаются на незаконном выращивании марихуаны и предстают перед судом, но невесть откуда взявшийся адвокат умудряется снять с них все обвинения, ловко подсунув бумаги на подпись. Зато теперь друзья не имеют права называться своими знаменитыми именами, потому что права на них принадлежат голливудской студии, которая собралась снимать ребут приключений Пыхаря и Хроника. Вне себя от возмущения парочка в очередной раз отправляется в Голливуд сорвать съёмки ненавистного фильма, а по дороге попадет к бывшей девушке Джея, где выясняется, что у того есть дочь-подросток.

Страна: США
Продолжительность: 01:45:19
Перевод: Профессиональный (многоголосый, закадровый), любительский (двухголосый закадровый), авторский

Файл
Кодек: h.264
Качество: BDRip-AVC
Видео: MPEG-4, 1080x452, 23.976 fps ~2305 kbps
Звук:
1) HE-AAC 6 ch, 48 kHz ~192 kbps - MVO [HDRezka Studio]
2) HE-AAC 2 ch, 48 kHz ~72 kbps - DVO [LakeFilms]
3) AAC 2 ch, 48 kHz ~160 kbps -AVO [Яроцкий]
4) HE-AAC 6 ch, 48 kHz ~224 kbps - Original
Субтитры: Русские, английские

Media Info:


[+] Скрытый текст
General
Unique ID                   : 21581752026044824153054515987316218143 (0x103C7E8708474DC0EB70FD694454191F)
Format                      : Matroska
Format version              : Version 4
File size                   : 2.18 GiB
Duration                    : 1 h 45 min
Overall bit rate            : 2 958 kb/s
Movie name                  : Jay and Silent Bob Reboot (2019) BDRip-AVC от DrVampir
Encoded date                : UTC 2020-02-13 10:11:51
Writing application         : mkvmerge v43.0.0 ('The Quartermaster') 64-bit
Writing library             : libebml v1.3.10 + libmatroska v1.5.2
Cover                       : Yes
Attachments                 : Cover.jpg

Video
ID                          : 1
Format                      : AVC
Format/Info                 : Advanced Video Codec
Format profile              : High@L4.1
Format settings             : CABAC / 10 Ref Frames
Format settings, CABAC      : Yes
Format settings, Reference  : 10 frames
Codec ID                    : V_MPEG4/ISO/AVC
Duration                    : 1 h 45 min
Bit rate                    : 2 305 kb/s
Width                       : 1 080 pixels
Height                      : 452 pixels
Display aspect ratio        : 2.40:1
Frame rate mode             : Constant
Frame rate                  : 23.976 (24000/1001) FPS
Color space                 : YUV
Chroma subsampling          : 4:2:0
Bit depth                   : 8 bits
Scan type                   : Progressive
Bits/(Pixel*Frame)          : 0.197
Stream size                 : 1.70 GiB (78%)
Title                       : MPEG-4, 1080x452, 23.976 fps ~2305 kbps
Writing library             : x264 core 157 r2935 545de2f
Encoding settings           : cabac=1 / ref=10 / deblock=1:-3:-2 / analyse=0x3:0x133 / me=umh / subme=11 / psy=1 / psy_rd=1.00:0.10 / mixed_ref=1 / me_range=56 / chroma_me=1 / trellis=2 / 8x8dct=1 / cqm=0 / deadzone=21,11 / fast_pskip=1 / chroma_qp_offset=-3 / threads=6 / lookahead_threads=1 / sliced_threads=0 / nr=0 / decimate=0 / interlaced=0 / bluray_compat=0 / constrained_intra=0 / bframes=16 / b_pyramid=2 / b_adapt=2 / b_bias=0 / direct=3 / weightb=1 / open_gop=0 / weightp=2 / keyint=240 / keyint_min=24 / scenecut=40 / intra_refresh=0 / rc_lookahead=80 / rc=2pass / mbtree=1 / bitrate=2305 / ratetol=1.0 / qcomp=0.60 / qpmin=0 / qpmax=69 / qpstep=4 / cplxblur=20.0 / qblur=0.5 / vbv_maxrate=62500 / vbv_bufsize=78125 / nal_hrd=none / filler=0 / ip_ratio=1.40 / aq=1:1.00
Language                    : English
Default                     : Yes
Forced                      : No
Color range                 : Limited
Color primaries             : BT.709
Transfer characteristics    : BT.709
Matrix coefficients         : BT.709

Audio #1
ID                          : 2
Format                      : AAC LC SBR
Format/Info                 : Advanced Audio Codec Low Complexity with Spectral Band Replication
Commercial name             : HE-AAC
Format settings             : Explicit
Codec ID                    : A_AAC-2
Duration                    : 1 h 45 min
Bit rate                    : 192 kb/s
Channel(s)                  : 6 channels
Channel layout              : C L R Ls Rs LFE
Sampling rate               : 48.0 kHz
Frame rate                  : 23.438 FPS (2048 SPF)
Compression mode            : Lossy
Delay relative to video     : 10 ms
Stream size                 : 144 MiB (6%)
Title                       : HE-AAC 6 ch, 48 kHz ~192 kbps - MVO [HDRezka Studio]
Language                    : Russian
Default                     : Yes
Forced                      : No

Audio #2
ID                          : 3
Format                      : AAC LC SBR
Format/Info                 : Advanced Audio Codec Low Complexity with Spectral Band Replication
Commercial name             : HE-AAC
Format settings             : Explicit
Codec ID                    : A_AAC-2
Duration                    : 1 h 45 min
Bit rate                    : 72.0 kb/s
Channel(s)                  : 2 channels
Channel layout              : L R
Sampling rate               : 48.0 kHz
Frame rate                  : 23.438 FPS (2048 SPF)
Compression mode            : Lossy
Delay relative to video     : 10 ms
Stream size                 : 54.2 MiB (2%)
Title                       : HE-AAC 2 ch, 48 kHz ~72 kbps - DVO [LakeFilms]
Language                    : Russian
Default                     : No
Forced                      : No

Audio #3
ID                          : 4
Format                      : AAC LC
Format/Info                 : Advanced Audio Codec Low Complexity
Codec ID                    : A_AAC-2
Duration                    : 1 h 45 min
Bit rate                    : 160 kb/s
Channel(s)                  : 2 channels
Channel layout              : L R
Sampling rate               : 48.0 kHz
Frame rate                  : 46.875 FPS (1024 SPF)
Compression mode            : Lossy
Delay relative to video     : -21 ms
Stream size                 : 121 MiB (5%)
Title                       : AAC 2 ch, 48 kHz ~160 kbps -AVO (Яроцкий)
Language                    : Russian
Default                     : No
Forced                      : No

Audio #4
ID                          : 5
Format                      : AAC LC SBR
Format/Info                 : Advanced Audio Codec Low Complexity with Spectral Band Replication
Commercial name             : HE-AAC
Format settings             : Explicit
Codec ID                    : A_AAC-2
Duration                    : 1 h 45 min
Bit rate                    : 224 kb/s
Channel(s)                  : 6 channels
Channel layout              : C L R Ls Rs LFE
Sampling rate               : 48.0 kHz
Frame rate                  : 23.438 FPS (2048 SPF)
Compression mode            : Lossy
Delay relative to video     : 10 ms
Stream size                 : 169 MiB (8%)
Title                       : HE-AAC 6 ch, 48 kHz ~224 kbps - Original
Language                    : English
Default                     : No
Forced                      : No

Text #1
ID                          : 6
Format                      : ASS
Codec ID                    : S_TEXT/ASS
Codec ID/Info               : Advanced Sub Station Alpha
Duration                    : 1 h 44 min
Bit rate                    : 204 b/s
Count of elements           : 1926
Compression mode            : Lossless
Stream size                 : 156 KiB (0%)
Language                    : Russian
Default                     : No
Forced                      : No

Text #2
ID                          : 7
Format                      : ASS
Codec ID                    : S_TEXT/ASS
Codec ID/Info               : Advanced Sub Station Alpha
Duration                    : 1 h 43 min
Bit rate                    : 150 b/s
Count of elements           : 2012
Compression mode            : Lossless
Stream size                 : 113 KiB (0%)
Language                    : English
Default                     : No
Forced                      : No

Menu
00:00:00.000                : :Chapter 1
00:03:38.677                : :Chapter 2
00:09:30.653                : :Chapter 3
00:16:32.658                : :Chapter 4
00:24:10.324                : :Chapter 5
00:30:43.633                : :Chapter 6
00:40:34.015                : :Chapter 7
00:44:53.941                : :Chapter 8
00:48:46.715                : :Chapter 9
00:54:34.021                : :Chapter 10
00:59:26.772                : :Chapter 11
01:07:03.228                : :Chapter 12
01:10:01.948                : :Chapter 13
01:16:08.481                : :Chapter 14
01:25:37.215                : :Chapter 15
01:32:39.387                : :Chapter 16



Скриншоты:
[+] Всего файлов в раздаче - 1:
Джей и Молчаливый Боб - Перезагрузка (2019).mkv2.18 GB

Показать еще раздачи по запросу джей:
2020-02-02 U Джей и Молчаливый Боб: Перезагрузка / Jay and Silent Bob Reboot (2019) HDRip | Яроцкий 1.46 GB ↑ 94 ↓ 23
2020-01-19 U Джей и Молчаливый Боб: Перезагрузка / Jay and Silent Bob Reboot (2019) HDRip от Scarabey | HDRezka Studio 1.45 GB ↑ 38 ↓ 8
2020-01-17 U Джей и Молчаливый Боб: Перезагрузка / Jay and Silent Bob Reboot (2019) BDRip от MegaPeer | HDRezka Studio 1.46 GB ↑ 320 ↓ 163
2020-01-17 U Джей и Молчаливый Боб: Перезагрузка / Jay and Silent Bob Reboot (2019) BDRip от MegaPeer | HDRezka Studio 1.46 GB ↑ 112 ↓ 74
2020-01-17 U Джей и Молчаливый Боб: Перезагрузка / Jay and Silent Bob Reboot (2019) HDRip | HDRezka Studio 1.29 GB ↑ 98 ↓ 36
2020-01-17 U Джей и Молчаливый Боб: Перезагрузка / Jay and Silent Bob Reboot (2019) BDRip 1080p | HDRezka Studio 10.33 GB ↑ 108 ↓ 80
2020-01-17 U Джей и Молчаливый Боб: Перезагрузка / Jay and Silent Bob Reboot (2019) BDRip 720p | HDRezka Studio 3.90 GB ↑ 107 ↓ 53

Отзывы
Зарегистрируйтесь чтобы добавить комментарий.
Обратная связь
Copyleft ©