↑↓torrent.by
Поиск
Логин: Регистрация
Пароль: Восстановить пароль

Расправь крылья / Donne moi des ailes (2019) BDRemux 1080p от селезень | iTunes

Скачать rasprav-krylya-donne-moi-des-ailes-2019-bdremux-1080p-ot-selezen-itunes.torrent
U Магнитная ссылка Размер: 32.76 GB Раздают: 43 Качают: 20 Добавлен: 2020-02-14 06:44:54
Расправь крылья / Donne moi des ailes (2019) BDRemux 1080p от селезень | iTunes

Название: Расправь крылья
Оригинальное название: Donne moi des ailes
Год выхода: 2019
Жанр: Приключения, семейный
Режиссер: Николя Ванье
В ролях: Жан-Поль Рув, Мелани Дотей, Луис Васкес, Лилу Фогли, Фредерик Сорель, Грегори Баке, Доминик Пинон, Ариан Пири, Филипп Маньян, Седрик Месбурже

О фильме: Подросток Тома навещает во время отдыха своего отца Кристиана, чудаковатого орнитолога. Но для юноши, увлеченного гаджетами и играми, разведение диких гусей во французской деревне и эксперименты отца наводят лишь тоску. Однако все меняется, когда Тома решает спасти исчезающий вид диких гусей и отправляется в воодушевляющее путешествие с «небесными ангелами», как их называет Кристиан.

Страна: Франция, Норвегия
Студия: Canal+ [fr], Canopée Production, France 2 Cinéma
Продолжительность: 01:53:00
Перевод: Дублированный | iTunes

Качество: BDRemux 1080p
Видео: MPEG-4 AVC, 1920x1080, 38.1 Mbit/s, 24 fps
Аудио #01: 48 kHz, AC3, 5.1, 384 Kbps | iTunes | RUS |
Аудио #02: 48 kHz, DTS-HD MA, 5.1, 3045 Kbps | Оригинал |  FRE |
Субтитры: Нет

Релиз:


[+] MI
General
Unique ID                   : 194533063205025331210256508135963485605 (0x9259B4855D85B3DC03793192D001E5A5)
Complete name               : E:Video111Donne.Moi.des.Ailes.2019.BDREMUX.1080p.seleZen.mkv
Format                      : Matroska
Format version              : Version 4
File size                   : 32.8 GiB
Duration                    : 1 h 53 min
Overall bit rate mode       : Variable
Overall bit rate            : 41.5 Mb/s
Movie name                  : Donne Moi des Ailes 2019 from селезень
Encoded date                : UTC 2020-02-13 08:26:19
Writing application         : mkvmerge v40.0.0 ('Old Town Road + Pony') 64-bit
Writing library             : libebml v1.3.9 + libmatroska v1.5.2

Video
ID                          : 1
Format                      : AVC
Format/Info                 : Advanced Video Codec
Format profile              : High@L4.1
Format settings             : CABAC / 2 Ref Frames
Format settings, CABAC      : Yes
Format settings, Reference  : 2 frames
Codec ID                    : V_MPEG4/ISO/AVC
Duration                    : 1 h 53 min
Bit rate mode               : Variable
Bit rate                    : 38.1 Mb/s
Width                       : 1 920 pixels
Height                      : 1 080 pixels
Display aspect ratio        : 16:9
Frame rate mode             : Constant
Frame rate                  : 24.000 FPS
Color space                 : YUV
Chroma subsampling          : 4:2:0
Bit depth                   : 8 bits
Scan type                   : Progressive
Bits/(Pixel*Frame)          : 0.765
Stream size                 : 30.1 GiB (92%)
Language                    : French
Default                     : Yes
Forced                      : No

Audio #1
ID                          : 2
Format                      : AC-3
Format/Info                 : Audio Coding 3
Commercial name             : Dolby Digital
Codec ID                    : A_AC3
Duration                    : 1 h 53 min
Bit rate mode               : Constant
Bit rate                    : 384 kb/s
Channel(s)                  : 6 channels
Channel layout              : L R C LFE Ls Rs
Sampling rate               : 48.0 kHz
Frame rate                  : 31.250 FPS (1536 SPF)
Compression mode            : Lossy
Stream size                 : 310 MiB (1%)
Title                       : iTunes
Language                    : Russian
Service kind                : Complete Main
Default                     : Yes
Forced                      : Yes

Audio #2
ID                          : 3
Format                      : DTS XLL
Format/Info                 : Digital Theater Systems
Commercial name             : DTS-HD Master Audio
Codec ID                    : A_DTS
Duration                    : 1 h 53 min
Bit rate mode               : Variable
Bit rate                    : 3 045 kb/s
Channel(s)                  : 6 channels
Channel layout              : C L R Ls Rs LFE
Sampling rate               : 48.0 kHz
Frame rate                  : 93.750 FPS (512 SPF)
Bit depth                   : 24 bits
Compression mode            : Lossless
Stream size                 : 2.40 GiB (7%)
Title                       : Original
Language                    : French
Default                     : No
Forced                      : No

Menu
00:00:00.000                : en:00:00:00.000
00:10:22.208                : en:00:10:22.208
00:18:40.792                : en:00:18:40.792
00:28:41.625                : en:00:28:41.625
00:36:47.542                : en:00:36:47.542
00:46:19.333                : en:00:46:19.333
00:51:30.125                : en:00:51:30.125
01:02:36.625                : en:01:02:36.625
01:11:18.333                : en:01:11:18.333
01:20:06.708                : en:01:20:06.708
01:29:25.750                : en:01:29:25.750
01:37:34.333                : en:01:37:34.333



Скриншоты:
[+] Всего файлов в раздаче - 1:
Donne.Moi.des.Ailes.2019.BDREMUX.1080p.seleZen.mkv32.76 GB

Похожие раздачи по запросу - расправь:
2020-02-14 U Расправь крылья / Donne moi des ailes (2019) BDRip-AVC | iTunes 1.89 GB ↑ 49 ↓ 19
2020-02-13 U Расправь крылья / Donne moi des ailes (2019) BDRip 1080p от селезень | iTunes 11.19 GB ↑ 112 ↓ 107
2020-02-13 U Расправь крылья / Donne moi des ailes (2019) BDRip 720p от селезень | iTunes 6.23 GB ↑ 129 ↓ 86
2020-02-13 U Расправь крылья / Donne moi des ailes (2019) BDRip от MegaPeer | iTunes 1.46 GB ↑ 4 ↓ 54

Отзывы
Зарегистрируйтесь чтобы добавить комментарий.
Обратная связь
Copyleft ©