↑↓torrent.by
Поиск
Логин: Регистрация
Пароль: Восстановить пароль

Триггер [01-04 из 16] (2018) HDTV 1080i от GeneralFilm

Скачать trigger-01-04-iz-16-2018-hdtv-1080i-ot-generalfilm.torrent
U Магнитная ссылка Размер: 8.36 GB Раздают: 42 Качают: 81 Добавлен: 2020-02-14 06:44:57
Триггер [01-04 из 16] (2018) HDTV 1080i от GeneralFilm

Год выпуска: 2018
Жанр:  Драма
Выпущено: Россия, Кинокомпания «Среда» для Первого канала
Режиссер: Дмитрий Тюрин
В ролях: Максим Матвеев, Игорь Костолевский, Светлана Иванова, Виктория Маслова, Роман Маякин, Владислав Тирон, Ангелина Стречина, Марк Юсеф, Данила Дунаев, Ян Цапник, Даниил Воробьёв, Янина Малинчик, Олег Масленников-Войтов, Дарья Буткеева, Маруся Пестунова, Екатерина Соломатина, Хельга Филиппова, Екатерина Соколова-Жубер, Лиза Климова, Мария Ахметзянова, Антон Денисенко, Антонина Паперная, Сергей Гурьев, Максим Костромыкин, Екатерина Копанова, Олег Каменщиков

О фильме: Артем Стрелецкий – психолог, профессиональный провокатор, практикующий «шоковый» метод психотерапии. Большинство психологов «нянчатся» с клиентами, по полгода выслушивают жалобы на жизнь, сочувствуют – и получают кругленькие суммы за курс сеансов. Артем провоцирует клиентов, оскорбляет их, смеется над ними, специально подстраивает неловкие ситуации и намеренно выталкивает из зоны психологического комфорта. Провокации активируют в психике человека желание немедленно разобраться со своими проблемами, и решение находится очень быстро – буквально за один-два сеанса. Практика Артема процветает, пока один из клиентов Стрелецкого не накладывает на себя руки. Выйдя на свободу после четырехлетнего заключения по делу о доведении до самоубийства, Артем твёрдо намеревается всё исправить – доказать свою невиновность и вернуть любимую жену Дашу...

Качество: HDTV (1080i)
Видео: MPEG-TS AVC, ~ 5050  Кбит/с, 1920x1080, 25 кадр/с
Аудио: Русский  (AC3, 2 ch, 384 Кбит/с), (MP2, 2 ch, 192 Кбит/с)
Продолжительность: 4 х ~ 00:50:00
Перевод: Не требуется
Субтитры: нет

Релиз:


[+] MediaInfo

Общее
Идентификатор                            : 1 (0x1)
Полное имя                               : D:ЗаписьTrigger.HDTV(1080i).GeneralFilm1.Trigger.HDTV(1080i).GeneralFilm.ts
Формат                                   : MPEG-TS
Размер файла                             : 2,06 Гбайт
Продолжительность                        : 49 м.
Режим общего битрейта                    : Переменный
Общий поток                              : 5910 Кбит/сек

Видео
Идентификатор                            : 1904 (0x770)
Идентификатор меню                       : 5640 (0x1608)
Формат                                   : AVC
Формат/Информация                        : Advanced Video Codec
Профиль формата                          : High@L4.0
Параметр CABAC формата                   : Да
Параметр ReFrames формата                : 3 кадра
Идентификатор кодека                     : 27
Продолжительность                        : 49 м.
Битрейт                                  : 5036 Кбит/сек
Ширина                                   : 1920 пикселей
Высота                                   : 1080 пикселей
Соотношение сторон                       : 16:9
Частота кадров                           : 25,000 кадров/сек
Стандарт вещания                         : Component
Цветовое пространство                    : YUV
Субдискретизация насыщенности            : 4:2:0
Битовая глубина                          : 8 бит
Тип развёртки                            : Чересстрочная
Порядок развёртки                        : Верхнее поле первое
Бит/(Пиксели*Кадры)                      : 0.097
Размер потока                            : 1,75 Гбайт (85%)
Основные цвета                           : BT.709
Характеристики трансфера                 : BT.709
Коэффициенты матрицы                     : BT.709

Аудио #1
Идентификатор                            : 2904 (0xB58)
Идентификатор меню                       : 5640 (0x1608)
Формат                                   : AC-3
Формат/Информация                        : Audio Coding 3
Расширение режима                        : CM (complete main)
Параметр Endianness формата              : Big
Идентификатор кодека                     : 6
Продолжительность                        : 49 м.
Вид битрейта                             : Постоянный
Битрейт                                  : 384 Кбит/сек
Каналы                                   : 6 каналов
Расположение каналов                     : Front: L C R, Side: L R, LFE
Частота                                  : 48,0 КГц
Битовая глубина                          : 16 бит
Метод сжатия                             : С потерями
Задержка видео                           : -40 мс.
Размер потока                            : 137 Мбайт (6%)
Язык                                     : Russian

Аудио #2
Идентификатор                            : 2905 (0xB59)
Идентификатор меню                       : 5640 (0x1608)
Формат                                   : MPEG Audio
Версия формата                           : Version 1
Профиль формата                          : Layer 2
Идентификатор кодека                     : 3
Продолжительность                        : 49 м.
Вид битрейта                             : Постоянный
Битрейт                                  : 192 Кбит/сек
Каналы                                   : 2 канала
Частота                                  : 48,0 КГц
Метод сжатия                             : С потерями
Задержка видео                           : -40 мс.
Размер потока                            : 68,4 Мбайт (3%)
Язык                                     : Russian




Скриншоты:
[+] Всего файлов в раздаче - 4:
01.Trigger.HDTV(1080i).GeneralFilm.ts2.06 GB
02.Trigger.HDTV(1080i).GeneralFilm.ts1.91 GB
03.Trigger.HDTV(1080i).GeneralFilm.ts2.41 GB
04.Trigger.HDTV(1080i).GeneralFilm.ts1.98 GB

Показать еще раздачи по запросу триггер:
Вчера U Триггер [01-06 из 16] (2018) HDTV 1080i от GeneralFilm 12.85 GB ↑ 34 ↓ 88
Вчера U Триггер [01х01-07 из 16] (2019) SATRip-AVC 4.03 GB ↑ 4 ↓ 3
Вчера U Триггер [01-06 из 16] (2018) HDTVRip 720p от GeneralFilm 7.54 GB ↑ 16 ↓ 61
Вчера U Триггер [01-06 из 16] (2018) HDTVRip от GeneralFilm 3.68 GB ↑ 35 ↓ 62
2020-02-18 U Триггер [01-05 из 16] (2018) HDTVRip 720p от GeneralFilm 6.30 GB ↑ 46 ↓ 164
2020-02-18 U Триггер [01-05 из 16] (2018) HDTVRip от GeneralFilm 3.07 GB ↑ 50 ↓ 97
2020-02-15 U Триггер [01х01-04 из 16] (2018) WEB-DL 1080p от ExKinoRay 7.49 GB ↑ 26 ↓ 37

Отзывы
Зарегистрируйтесь чтобы добавить комментарий.
Обратная связь
Copyleft ©