↑↓torrent.by
Поиск
Логин: Регистрация
Пароль: Восстановить пароль

Иван Царевич и Серый Волк 4 (2019) WEB-DLRip

Скачать ivan-carevich-i-seryy-volk-4-2019-web-dlrip.torrent
U Магнитная ссылка Размер: 742.90 MB Раздают: 67 Качают: 19 Добавлен: 2020-02-14 06:45:05
Иван Царевич и Серый Волк 4 (2019) WEB-DLRip

Информация
Название: Иван Царевич и Серый Волк 4
Страна: Россия
Жанр: мультфильм, приключения, семейный
Продолжительность: 01:28:23
Перевод: Не требуется
Cубтитры: нет

Режиссер: Дарина Шмидт

В ролях: Никита Ефремов, Иван Охлобыстин, Михаил Боярский, Равшана Куркова, Сергей Волчков, Мария Цветкова-Овсянникова, Александр Боярский, Олег Куликович, Анатолий Петров, Михаил Хрусталёв

Описание: Зима в этом году в тридевятом царстве случилась особенно долгая и холодная. Прямо, как в прошлом году. И как в позапрошлом. Но, вот, пришла весна. Точнее — почти пришла. С вьюгой, морозами и снегом. Как обычно. И совсем было загрустили наши герои — Иван, Василиса, Серый Волк и Царь-батюшка, если бы вместе с почти-весной, не пришла новость — в Трисемнадцатом царстве пройдет ежегодный всесказочный конкурс песни. В прошлом году там победил хомяк Жорж, а чей голос окажется круче на этот раз? Царь решил, что Тридевятое царство будет представлять Кот-ученый. Не один все же мультфильм прошли вместе, да и все равно он про книги забыл, орет, точнее поет целыми днями на крышах, как и положено коту в марте. И, конечно, вся компания во главе с Иваном и Волком отправляется поддержать пушистого певца. Ведь свои нужны рядом. А то шоу-бизнес — настоящий серпентарий, и кто знает, какие темные силы стоят за коварными соперниками и их стремлением стать звездой.

 | Рекламы нет

Файл
Качество: WEB-DLRip
Формат: AVI
Видео кодек: XviD
Аудио кодек: MP3
Видео: 688x384 (1.79:1), 23.976 fps, XviD build 73 ~1037 kbps avg, 0.16 bit/pixel
Аудио: 48 kHz, MPEG Layer 3, 2 ch, ~128.00 kbps avg


[+] MediaInfo:
Формат : AVI
Формат/Информация : Audio Video Interleave
Размер файла : 743 Мбайт
Продолжительность : 1 ч. 28 м.
Общий поток : 1175 Кбит/сек
Название фильма : Иван Царевич и Серый Волк 4_2019_WEB-DLRip
Программа кодирования : VirtualDubMod 1.5.10.3 | (build 2550/release)

Видео
Идентификатор : 0
Формат : MPEG-4 Visual
Профиль формата : Advanced Simple@L5
Настройки формата : BVOP1 / Custom Matrix
Параметр BVOP формата : 1
Параметр QPel формата : Нет
Параметр GMC формата : Без точки перехода
Параметр матрицы формата : Выборочная
Идентификатор кодека : XVID
Идентификатор кодека/Подсказка : XviD
Продолжительность : 1 ч. 28 м.
Битрейт : 1038 Кбит/сек
Ширина : 688 пикселей
Высота : 384 пикселя
Соотношение сторон : 16:9
Частота кадров : 23,976 (24000/1001) кадра/сек
Цветовое пространство : YUV
Субдискретизация насыщенности : 4:2:0
Битовая глубина : 8 бит
Тип развёртки : Прогрессивная
Метод сжатия : С потерями
Бит/(Пиксели*Кадры) : 0.164
Размер потока : 656 Мбайт (88%)
Библиотека кодирования : XviD 73

Аудио
Идентификатор : 1
Формат : MPEG Audio
Версия формата : Version 1
Профиль формата : Layer 3
Идентификатор кодека : 55
Идентификатор кодека/Подсказка : MP3
Продолжительность : 1 ч. 28 м.
Вид битрейта : Постоянный
Битрейт : 128 Кбит/сек
Каналы : 2 канала
Частота : 48,0 КГц
Частота кадров : 41,667 кадра/сек (1152 SPF)
Метод сжатия : С потерями
Размер потока : 80,9 Мбайт (11%)
Выравнивание : Соединение по промежуткам
Продолжительность промежутка : 42 мс. (1,00 видеокадр)
Время предзагрузки промежутка : 504 мс.
Библиотека кодирования : LAME3.99r
Настройки программы : -m s -V 4 -q 2 -lowpass 17 -b 128



Скриншоты:
[+] Всего файлов в раздаче - 1:
Иван Царевич и Серый Волк 4_2019_WEB-DLRip.avi742.90 MB

Показать еще раздачи по запросу иван:
2020-02-09 U Иван Царевич и Серый Волк 4 (2019) WEB-DLRip-AVC 1.46 GB ↑ 162 ↓ 51
2020-02-08 U Иван Царевич и Серый Волк 4 (2019) WEB-DLRip от Dalemake 1.46 GB ↑ 788 ↓ 341
2019-09-21 U Иван Кучин - 50 лучших песен [Большая коллекция шансона] (2013) MP3 1К447.62 MB ↑ 12097 ↓ 3003
2019-09-21 U Иван Кучин - 50 лучших песен (Большая коллекция шансона) (2013) Compilation [FLAC|Lossless|WEB-DL|tracks] 1.26 GB ↑ 4670 ↓ 914
2019-09-18 U Иван Охлобыстин - Улисс (2019) MP3 353.42 MB ↑ 102 ↓ 8
2019-02-14 U Крылов Иван Андреевич - Собрание сочинений [3 тома] (1945) FB2 3.42 MB ↑ 95 ↓ 4
2016-02-28 U Иван Царевич и Серый Волк 3 (2015) BDRip 1080p | Лицензия 2.19 GB ↑ 2142 ↓ 23

Отзывы
Зарегистрируйтесь чтобы добавить комментарий.
Обратная связь
Copyleft ©