↑↓torrent.by
Поиск
Логин: Регистрация
Пароль: Восстановить пароль

Миссия Серенити / Serenity (2005) WEB-DL 1080p | D, P2, A | Open Matte

Скачать missiya-sereniti-serenity-2005-web-dl-1080p-d-p2-a-open-matte.torrent
U Магнитная ссылка Размер: 12.48 GB Раздают: 27 Качают: 19 Добавлен: 2020-02-14 06:45:36
Миссия Серенити / Serenity (2005) WEB-DL 1080p | D, P2, A | Open Matte

Название: Миссия Серенити
Оригинальное название: Serenity
Год выхода: 2005
Жанр: фантастика, боевик, триллер, приключения
Режиссер: Джосс Уидон / Joss Whedon
В ролях: Нэйтан Филлион, Джина Торрес, Алан Тьюдик, Морена Баккарин, Адам Болдуин, Джуэл Стэйт, Шон Маэр, Саммер Глау, Рон Гласс, Чиветель Эджиофорш

О фильме:
Космический «морской волк» и ветеран Гражданской Галактической войны Малькольм «Мэл» Рейнольдс - теперь всего лишь капитан транспортного корабля. Когда они взяли на борт пассажиров - молодого доктора и его странную сестру с телепатическими способностями, ни он, ни его товарищи не предполагали, в какую историю ввяжутся. Спасаясь сразу от нескольких могущественных врагов - и от военных сил тоталитарного Вселенского Альянса, и от ужасных каннибалов Жнецов, команда корабля даже не догадывалась, какая угроза скрывается на борту «Серенити».

Страна: США
Выпущено: Universal Pictures, Barry Mendel Productions
Продолжительность: 01:59:03
Перевод: Профессиональный (полное дублирование), Профессиональный (двухголосый, закадровый), Авторский (одноголосый, закадровый)

Файл
Формат: MKV
Качество: WEB-DL 1080p | Open Matte
Видео: 1920x1080, 23.976 fps, MPEG-4 AVC, 11.6 Mb/s
Аудио 1: AC3, 6 ch, 384 kbps - Русский (DUB)
Аудио 2: AC3, 6 ch, 448 kbps - Русский (DVO Tycoon)
Аудио 3: AC3, 6 ch, 448 kbps - Русский (AVO Горчаков)
Аудио 4: AC3, 6 ch, 448 kbps - Русский (AVO Королев)
Аудио 5: AC3, 6 ch, 448 kbps - Русский (AVO Сербин)
Аудио 6: AC3, 2 ch, 192 kbps - Русский (AVO Гаврилов)
Аудио 7: AC3, 6 ch, 384 kbps - Украинский (MVO)
Аудио 8: E-AC3, 6 ch, 640 kbps - Английский
Субтитры: русские (форс, полные), английские


[+] MediaInfo
General
Unique ID                   : 170672460665643400273593623608258380285 (0x806651FD126B6DE682EB4725332AC1FD)
Complete name               : D:Serenity (2005) Open Matte 1080p.mkv
Format                      : Matroska
Format version              : Version 4
File size                   : 12.5 GiB
Duration                    : 1 h 59 min
Overall bit rate            : 15.0 Mb/s
Encoded date                : UTC 2020-02-13 13:49:06
Writing application         : mkvmerge v8.3.0 ('Over the Horizon') 32bit
Writing library             : libebml v1.3.1 + libmatroska v1.4.2

Video
ID                          : 1
Format                      : AVC
Format/Info                 : Advanced Video Codec
Format profile              : High@L4
Format settings             : CABAC / 4 Ref Frames
Format settings, CABAC      : Yes
Format settings, Reference  : 4 frames
Codec ID                    : V_MPEG4/ISO/AVC
Duration                    : 1 h 58 min
Bit rate                    : 11.6 Mb/s
Width                       : 1 920 pixels
Height                      : 1 080 pixels
Display aspect ratio        : 16:9
Frame rate mode             : Constant
Frame rate                  : 23.976 (24000/1001) FPS
Color space                 : YUV
Chroma subsampling          : 4:2:0
Bit depth                   : 8 bits
Scan type                   : Progressive
Bits/(Pixel*Frame)          : 0.234
Stream size                 : 9.65 GiB (77%)
Default                     : Yes
Forced                      : No
Color range                 : Limited
Color primaries             : BT.709
Transfer characteristics    : BT.709
Matrix coefficients         : BT.709

Audio #1
ID                          : 2
Format                      : AC-3
Format/Info                 : Audio Coding 3
Commercial name             : Dolby Digital
Codec ID                    : A_AC3
Duration                    : 1 h 58 min
Bit rate mode               : Constant
Bit rate                    : 384 kb/s
Channel(s)                  : 6 channels
Channel layout              : L R C LFE Ls Rs
Sampling rate               : 48.0 kHz
Frame rate                  : 31.250 FPS (1536 SPF)
Bit depth                   : 16 bits
Compression mode            : Lossy
Stream size                 : 327 MiB (3%)
Title                       : DUB
Language                    : Russian
Service kind                : Complete Main
Default                     : Yes
Forced                      : No

Audio #2
ID                          : 3
Format                      : AC-3
Format/Info                 : Audio Coding 3
Commercial name             : Dolby Digital
Codec ID                    : A_AC3
Duration                    : 1 h 59 min
Bit rate mode               : Constant
Bit rate                    : 448 kb/s
Channel(s)                  : 6 channels
Channel layout              : L R C LFE Ls Rs
Sampling rate               : 48.0 kHz
Frame rate                  : 31.250 FPS (1536 SPF)
Bit depth                   : 16 bits
Compression mode            : Lossy
Stream size                 : 381 MiB (3%)
Title                       : DVO Tycoon
Language                    : Russian
Service kind                : Complete Main
Default                     : No
Forced                      : No

Audio #3
ID                          : 4
Format                      : AC-3
Format/Info                 : Audio Coding 3
Commercial name             : Dolby Digital
Codec ID                    : A_AC3
Duration                    : 1 h 59 min
Bit rate mode               : Constant
Bit rate                    : 448 kb/s
Channel(s)                  : 6 channels
Channel layout              : L R C LFE Ls Rs
Sampling rate               : 48.0 kHz
Frame rate                  : 31.250 FPS (1536 SPF)
Bit depth                   : 16 bits
Compression mode            : Lossy
Stream size                 : 381 MiB (3%)
Title                       : AVO Горчаков
Language                    : Russian
Service kind                : Complete Main
Default                     : No
Forced                      : No

Audio #4
ID                          : 5
Format                      : AC-3
Format/Info                 : Audio Coding 3
Commercial name             : Dolby Digital
Codec ID                    : A_AC3
Duration                    : 1 h 59 min
Bit rate mode               : Constant
Bit rate                    : 448 kb/s
Channel(s)                  : 6 channels
Channel layout              : L R C LFE Ls Rs
Sampling rate               : 48.0 kHz
Frame rate                  : 31.250 FPS (1536 SPF)
Bit depth                   : 16 bits
Compression mode            : Lossy
Stream size                 : 381 MiB (3%)
Title                       : AVO Королев
Language                    : Russian
Service kind                : Complete Main
Default                     : No
Forced                      : No

Audio #5
ID                          : 6
Format                      : AC-3
Format/Info                 : Audio Coding 3
Commercial name             : Dolby Digital
Codec ID                    : A_AC3
Duration                    : 1 h 59 min
Bit rate mode               : Constant
Bit rate                    : 448 kb/s
Channel(s)                  : 6 channels
Channel layout              : L R C LFE Ls Rs
Sampling rate               : 48.0 kHz
Frame rate                  : 31.250 FPS (1536 SPF)
Bit depth                   : 16 bits
Compression mode            : Lossy
Stream size                 : 381 MiB (3%)
Title                       : AVO Сербин
Language                    : Russian
Service kind                : Complete Main
Default                     : No
Forced                      : No

Audio #6
ID                          : 7
Format                      : AC-3
Format/Info                 : Audio Coding 3
Commercial name             : Dolby Digital
Codec ID                    : A_AC3
Duration                    : 1 h 59 min
Bit rate mode               : Constant
Bit rate                    : 192 kb/s
Channel(s)                  : 2 channels
Channel layout              : L R
Sampling rate               : 48.0 kHz
Frame rate                  : 31.250 FPS (1536 SPF)
Bit depth                   : 16 bits
Compression mode            : Lossy
Stream size                 : 163 MiB (1%)
Title                       : AVO Гаврилов
Language                    : Russian
Service kind                : Complete Main
Default                     : No
Forced                      : No

Audio #7
ID                          : 8
Format                      : AC-3
Format/Info                 : Audio Coding 3
Commercial name             : Dolby Digital
Codec ID                    : A_AC3
Duration                    : 1 h 59 min
Bit rate mode               : Constant
Bit rate                    : 384 kb/s
Channel(s)                  : 6 channels
Channel layout              : L R C LFE Ls Rs
Sampling rate               : 48.0 kHz
Frame rate                  : 31.250 FPS (1536 SPF)
Bit depth                   : 16 bits
Compression mode            : Lossy
Stream size                 : 327 MiB (3%)
Title                       : MVO
Language                    : Ukrainian
Service kind                : Complete Main
Default                     : No
Forced                      : No

Audio #8
ID                          : 9
Format                      : E-AC-3
Format/Info                 : Enhanced AC-3
Commercial name             : Dolby Digital Plus
Codec ID                    : A_EAC3
Duration                    : 1 h 58 min
Bit rate mode               : Constant
Bit rate                    : 640 kb/s
Channel(s)                  : 6 channels
Channel layout              : L R C LFE Ls Rs
Sampling rate               : 48.0 kHz
Frame rate                  : 31.250 FPS (1536 SPF)
Compression mode            : Lossy
Stream size                 : 544 MiB (4%)
Language                    : English
Service kind                : Complete Main
Default                     : No
Forced                      : No

Text #1
ID                          : 10
Format                      : UTF-8
Codec ID                    : S_TEXT/UTF8
Codec ID/Info               : UTF-8 Plain Text
Duration                    : 1 h 17 min
Bit rate                    : 0 b/s
Count of elements           : 6
Stream size                 : 187 Bytes (0%)
Title                       : forced
Language                    : Russian
Default                     : Yes
Forced                      : No

Text #2
ID                          : 11
Format                      : UTF-8
Codec ID                    : S_TEXT/UTF8
Codec ID/Info               : UTF-8 Plain Text
Duration                    : 1 h 52 min
Bit rate                    : 105 b/s
Count of elements           : 1338
Stream size                 : 87.6 KiB (0%)
Title                       : Full 1
Language                    : Russian
Default                     : No
Forced                      : No

Text #3
ID                          : 12
Format                      : UTF-8
Codec ID                    : S_TEXT/UTF8
Codec ID/Info               : UTF-8 Plain Text
Duration                    : 1 h 52 min
Bit rate                    : 98 b/s
Count of elements           : 1334
Stream size                 : 81.2 KiB (0%)
Title                       : Full 2
Language                    : Russian
Default                     : No
Forced                      : No

Text #4
ID                          : 13
Format                      : UTF-8
Codec ID                    : S_TEXT/UTF8
Codec ID/Info               : UTF-8 Plain Text
Duration                    : 1 h 52 min
Bit rate                    : 59 b/s
Count of elements           : 1635
Stream size                 : 49.6 KiB (0%)
Language                    : English
Default                     : No
Forced                      : No



Скриншоты:
[+] Всего файлов в раздаче - 1:
Serenity (2005) Open Matte 1080p.mkv12.48 GB

Показать еще раздачи по запросу миссия:
2020-01-17 U Секретные материалы. Миссия в Кабул: секретный полет (2020) SATRip 507.21 MB ↑ 39 ↓ 8
2020-01-08 U Миссия / The Mission (1986) BDRip 1080p | Р, P2 9.47 GB ↑ 39 ↓ 18
2019-12-18 U Опасная миссия / Mordene i Kongo (2018) BDRip 1080p | iTunes 9.08 GB ↑ 69 ↓ 43
2019-12-16 U Опасная миссия / Mordene i Kongo (2018) HDRip от MegaPeer | iTunes 2.18 GB ↑ 156 ↓ 64
2019-12-16 U Опасная миссия / Mordene i Kongo (2018) HDRip от MegaPeer | iTunes 1.46 GB ↑ 72 ↓ 86
2019-04-06 U Шутки в сторону 2: Миссия в Майами / Le flic de Belleville (2018) BDRip | iTunes 2.18 GB ↑ 335 ↓ 79
2018-11-19 U Миссия невыполнима: Последствия / Mission: Impossible - Fallout (2018) BDRip от ExKinoRay | IMAX Edition | iTunes 2.12 GB ↑ 525 ↓ 74

Отзывы
Зарегистрируйтесь чтобы добавить комментарий.
Обратная связь
Copyleft ©