↑↓torrent.by
Поиск
Логин: Регистрация
Пароль: Восстановить пароль

Ford против Ferrari / Ford v Ferrari (2019) UHD BDRemux 2160p от селезень | 4K | HDR | D, P | iTunes

Скачать ford-protiv-ferrari-v-2019-uhd-bdremux-2160p-ot-selezen-4k-hdr-d-p-itunes.torrent
U Магнитная ссылка Размер: 48.20 GB Раздают: 55 Качают: 190 Добавлен: 2020-02-14 09:54:23
Ford против Ferrari / Ford v Ferrari (2019) UHD BDRemux 2160p от селезень | 4K | HDR | D, P | iTunes

Название: Ford против Ferrari
Оригинальное название: Ford v Ferrari
Год выхода: 2019
Жанр: Драма, биография, спорт
Режиссер: Джеймс Мэнголд
В ролях: Кристиан Бэйл, Мэтт Дэймон, Катрина Балф, Трэйси Леттс, Джон Бернтал, Ноа Джуп, Джош Лукас, Ремо Джироне, Рэй МакКиннон, Джей Джей Филд

О фильме: Фильм рассказывает о взаимоотношениях американского автомобильного конструктора Кэрролла Шелби и отважного британского гонщика Кена Майлза, которые вместе бросили вызов корпорациям и собственным демонам, чтобы создать абсолютно новый спорткар, который смог конкурировать с Ferrari на чемпионате мира, прошедшем во Франции в середине 1960-х.

Страна: США, Франция
Студия: Chernin Entertainment, 20th Century Fox Film Corporation
Продолжительность: 02:32:35
Перевод(ы):
#1: Дублированный | iTunes
#2: Профессиональный многоголосый | HDRezka Studio

Качество: BDRemux 2160p
Видео: 3840x2160 at 23.976 fps, MPEG-H HEVC HDR Video, 38900 kbps avg
Аудио #01: 48 kHz, AC3, 5.1, 384 Kbps | Дублированный | RUS |
Аудио #02: 48 kHz, AC3, 5.1, 448 Kbps | Профессиональный многоголосый | RUS |
Аудио #03: 48 kHz, AC3, 2.0, 192 Kbps | Дублированный | UKR |
Аудио #04: 48 kHz, TrueHD, 7.1, 4561 Kbps | Оригинал |  ENG |
Аудио #05: 48 kHz, AC3, 5.1, 640 Kbps | Оригинал |  ENG |
Субтитры: Русские (Forced, full), украинские (Forced, full), английские

Релиз:


[+] MI
General
Unique ID                   : 155848986566614810025245705496729683553 (0x753F6C49EE75051E8518D81A48F30661)
Complete name               : E:Video111Ford.v.Ferrari.2019.BDREMUX.2160p.HDR.seleZen.mkv
Format                      : Matroska
Format version              : Version 4
File size                   : 48.2 GiB
Duration                    : 2 h 32 min
Overall bit rate mode       : Variable
Overall bit rate            : 45.2 Mb/s
Movie name                  : Ford v Ferrari 2019 4K from селезень
Encoded date                : UTC 2020-02-13 20:36:16
Writing application         : mkvmerge v40.0.0 ('Old Town Road + Pony') 64-bit
Writing library             : libebml v1.3.9 + libmatroska v1.5.2

Video
ID                          : 1
Format                      : HEVC
Format/Info                 : High Efficiency Video Coding
Format profile              : Main 10@L5.1@High
HDR format                  : SMPTE ST 2086, HDR10 compatible
Codec ID                    : V_MPEGH/ISO/HEVC
Duration                    : 2 h 32 min
Bit rate                    : 38.9 Mb/s
Width                       : 3 840 pixels
Height                      : 2 160 pixels
Display aspect ratio        : 16:9
Frame rate mode             : Constant
Frame rate                  : 23.976 (24000/1001) FPS
Color space                 : YUV
Chroma subsampling          : 4:2:0 (Type 2)
Bit depth                   : 10 bits
Bits/(Pixel*Frame)          : 0.196
Stream size                 : 41.5 GiB (86%)
Writing library             : ATEME Titan File 3.9.0 (4.9.0.0)        
Language                    : English
Default                     : Yes
Forced                      : No
Color range                 : Limited
Color primaries             : BT.2020
Transfer characteristics    : PQ
Matrix coefficients         : BT.2020 non-constant
Mastering display color pri : Display P3
Mastering display luminance : min: 0.0050 cd/m2, max: 1000 cd/m2

Audio #1
ID                          : 2
Format                      : AC-3
Format/Info                 : Audio Coding 3
Commercial name             : Dolby Digital
Codec ID                    : A_AC3
Duration                    : 2 h 32 min
Bit rate mode               : Constant
Bit rate                    : 384 kb/s
Channel(s)                  : 6 channels
Channel layout              : L R C LFE Ls Rs
Sampling rate               : 48.0 kHz
Frame rate                  : 31.250 FPS (1536 SPF)
Compression mode            : Lossy
Stream size                 : 419 MiB (1%)
Title                       : iTunes
Language                    : Russian
Service kind                : Complete Main
Default                     : Yes
Forced                      : Yes

Audio #2
ID                          : 3
Format                      : AC-3
Format/Info                 : Audio Coding 3
Commercial name             : Dolby Digital
Codec ID                    : A_AC3
Duration                    : 2 h 32 min
Bit rate mode               : Constant
Bit rate                    : 448 kb/s
Channel(s)                  : 6 channels
Channel layout              : L R C LFE Ls Rs
Sampling rate               : 48.0 kHz
Frame rate                  : 31.250 FPS (1536 SPF)
Compression mode            : Lossy
Stream size                 : 489 MiB (1%)
Title                       : MVO [HDRezka Studio]
Language                    : Russian
Service kind                : Complete Main
Default                     : No
Forced                      : No

Audio #3
ID                          : 4
Format                      : AC-3
Format/Info                 : Audio Coding 3
Commercial name             : Dolby Digital
Codec ID                    : A_AC3
Duration                    : 2 h 32 min
Bit rate mode               : Constant
Bit rate                    : 192 kb/s
Channel(s)                  : 2 channels
Channel layout              : L R
Sampling rate               : 48.0 kHz
Frame rate                  : 31.250 FPS (1536 SPF)
Compression mode            : Lossy
Stream size                 : 210 MiB (0%)
Title                       : iTunes
Language                    : Ukrainian
Service kind                : Complete Main
Default                     : No
Forced                      : No

Audio #4
ID                          : 5
Format                      : MLP FBA 16-ch
Format/Info                 : Meridian Lossless Packing FBA with 16-channel presentation
Commercial name             : Dolby TrueHD with Dolby Atmos
Codec ID                    : A_TRUEHD
Duration                    : 2 h 32 min
Bit rate mode               : Variable
Bit rate                    : 4 561 kb/s
Maximum bit rate            : 9 933 kb/s
Channel(s)                  : 8 channels
Channel layout              : L R C LFE Ls Rs Lb Rb
Sampling rate               : 48.0 kHz
Frame rate                  : 1 200.000 FPS (40 SPF)
Compression mode            : Lossless
Stream size                 : 4.86 GiB (10%)
Title                       : Original
Language                    : English
Default                     : No
Forced                      : No
Number of dynamic objects   : 13
Bed channel count           : 1 channel
Bed channel configuration   : LFE

Audio #5
ID                          : 6
Format                      : AC-3
Format/Info                 : Audio Coding 3
Commercial name             : Dolby Digital
Codec ID                    : A_AC3
Duration                    : 2 h 32 min
Bit rate mode               : Constant
Bit rate                    : 640 kb/s
Channel(s)                  : 6 channels
Channel layout              : L R C LFE Ls Rs
Sampling rate               : 48.0 kHz
Frame rate                  : 31.250 FPS (1536 SPF)
Compression mode            : Lossy
Stream size                 : 699 MiB (1%)
Language                    : English
Service kind                : Complete Main
Default                     : No
Forced                      : No

Text #1
ID                          : 7
Format                      : UTF-8
Codec ID                    : S_TEXT/UTF8
Codec ID/Info               : UTF-8 Plain Text
Duration                    : 2 h 31 min
Bit rate                    : 0 b/s
Count of elements           : 14
Stream size                 : 601 Bytes (0%)
Title                       : Forced [iTunes]
Language                    : Russian
Default                     : Yes
Forced                      : Yes

Text #2
ID                          : 8
Format                      : UTF-8
Codec ID                    : S_TEXT/UTF8
Codec ID/Info               : UTF-8 Plain Text
Duration                    : 2 h 31 min
Bit rate                    : 85 b/s
Count of elements           : 2067
Stream size                 : 94.8 KiB (0%)
Title                       : Full [iTunes]
Language                    : Russian
Default                     : No
Forced                      : No

Text #3
ID                          : 9
Format                      : UTF-8
Codec ID                    : S_TEXT/UTF8
Codec ID/Info               : UTF-8 Plain Text
Duration                    : 2 h 25 min
Bit rate                    : 1 b/s
Count of elements           : 19
Stream size                 : 1.21 KiB (0%)
Title                       : Forced [no name]
Language                    : Russian
Default                     : No
Forced                      : No

Text #4
ID                          : 10
Format                      : UTF-8
Codec ID                    : S_TEXT/UTF8
Codec ID/Info               : UTF-8 Plain Text
Duration                    : 2 h 26 min
Bit rate                    : 82 b/s
Count of elements           : 1652
Stream size                 : 87.8 KiB (0%)
Title                       : Full [blindAvocado]
Language                    : Russian
Default                     : No
Forced                      : No

Text #5
ID                          : 11
Format                      : UTF-8
Codec ID                    : S_TEXT/UTF8
Codec ID/Info               : UTF-8 Plain Text
Duration                    : 2 h 31 min
Bit rate                    : 1 b/s
Count of elements           : 31
Stream size                 : 1.54 KiB (0%)
Title                       : Forced
Language                    : Ukrainian
Default                     : No
Forced                      : No

Text #6
ID                          : 12
Format                      : UTF-8
Codec ID                    : S_TEXT/UTF8
Codec ID/Info               : UTF-8 Plain Text
Duration                    : 2 h 31 min
Bit rate                    : 91 b/s
Count of elements           : 2071
Stream size                 : 101 KiB (0%)
Title                       : Full
Language                    : Ukrainian
Default                     : No
Forced                      : No

Text #7
ID                          : 13
Format                      : UTF-8
Codec ID                    : S_TEXT/UTF8
Codec ID/Info               : UTF-8 Plain Text
Duration                    : 1 h 24 min
Bit rate                    : 0 b/s
Count of elements           : 9
Stream size                 : 304 Bytes (0%)
Title                       : Forced
Language                    : English
Default                     : No
Forced                      : No

Text #8
ID                          : 14
Format                      : UTF-8
Codec ID                    : S_TEXT/UTF8
Codec ID/Info               : UTF-8 Plain Text
Duration                    : 2 h 24 min
Bit rate                    : 51 b/s
Count of elements           : 1638
Stream size                 : 54.8 KiB (0%)
Title                       : Full
Language                    : English
Default                     : No
Forced                      : No

Text #9
ID                          : 15
Format                      : UTF-8
Codec ID                    : S_TEXT/UTF8
Codec ID/Info               : UTF-8 Plain Text
Duration                    : 2 h 32 min
Bit rate                    : 66 b/s
Count of elements           : 2489
Stream size                 : 73.8 KiB (0%)
Title                       : SDH
Language                    : English
Default                     : No
Forced                      : No

Menu
00:00:00.000                : en:Chapter 1
00:04:45.285                : en:Chapter 2
00:07:32.202                : en:Chapter 3
00:10:02.477                : en:Chapter 4
00:15:38.980                : en:Chapter 5
00:20:14.839                : en:Chapter 6
00:21:39.465                : en:Chapter 7
00:26:00.559                : en:Chapter 8
00:31:57.541                : en:Chapter 9
00:34:09.422                : en:Chapter 10
00:39:12.934                : en:Chapter 11
00:42:06.566                : en:Chapter 12
00:45:56.671                : en:Chapter 13
00:48:38.332                : en:Chapter 14
00:51:21.745                : en:Chapter 15
00:55:03.342                : en:Chapter 16
00:57:50.467                : en:Chapter 17
01:00:26.706                : en:Chapter 18
01:06:33.156                : en:Chapter 19
01:11:59.482                : en:Chapter 20
01:16:13.444                : en:Chapter 21
01:19:30.182                : en:Chapter 22
01:24:18.428                : en:Chapter 23
01:29:24.651                : en:Chapter 24
01:33:15.840                : en:Chapter 25
01:38:10.968                : en:Chapter 26
01:40:57.134                : en:Chapter 27
01:43:22.988                : en:Chapter 28
01:45:48.884                : en:Chapter 29
01:50:38.632                : en:Chapter 30
01:53:38.020                : en:Chapter 31
01:57:47.269                : en:Chapter 32
02:00:16.334                : en:Chapter 33
02:05:22.557                : en:Chapter 34
02:09:18.042                : en:Chapter 35
02:12:01.163                : en:Chapter 36
02:15:26.076                : en:Chapter 37
02:18:22.794                : en:Chapter 38
02:20:46.104                : en:Chapter 39
02:26:27.278                : en:Chapter 40



Скриншоты:
[+] Всего файлов в раздаче - 1:
Ford.v.Ferrari.2019.BDREMUX.2160p.HDR.seleZen.mkv48.20 GB

Показать еще раздачи по запросу ford:
2020-02-22 U Ford против Ferrari / Ford v Ferrari (2019) BDRip 720p от Scarabey | iTunes 6.22 GB ↑ 80 ↓ 29
2020-02-19 U Ford против Ferrari / Ford v Ferrari (2019) BDRip от Twister & ExKinoRay | iTunes 1.46 GB ↑ 43 ↓ 13
2020-02-19 U Ford против Ferrari / Ford v Ferrari (2019) BDRip от Twister & ExKinoRay | iTunes 2.12 GB ↑ 30 ↓ 9
2020-02-15 U Ford против Ferrari / Форд против Феррари / Ford v Ferrari (2019) BDRip 1080p от qqss44 & MegaPeer | iTunes 9.47 GB ↑ 36 ↓ 41
2020-02-14 U Ford против Ferrari / Ford v Ferrari (2019) BDRip-HEVC 1080p от HEVC-CLUB | iTunes 8.60 GB ↑ 67 ↓ 100
2020-02-14 U Ford против Ferrari / Ford v Ferrari (2019) BDRemux 1080p от селезень | D, P | iTunes 31.57 GB ↑ 49 ↓ 106
2020-02-14 U Ford против Ferrari / Ford v Ferrari (2019) BDRip 720p от ExKinoRay | iTunes 6.37 GB ↑ 56 ↓ 55

Отзывы
Зарегистрируйтесь чтобы добавить комментарий.
Обратная связь
Copyleft ©