↑↓torrent.by
Поиск
Логин: Регистрация
Пароль: Восстановить пароль

Великолепная пятерка [02х01-08 из 32] (2019) SATRip от Files-x

Скачать velikolepnaya-pyaterka-02h01-08-iz-32-2019-satrip-ot-files-x.torrent
U Магнитная ссылка Размер: 4.02 GB Раздают: 98 Качают: 56 Добавлен: 2020-02-14 09:54:45
Великолепная пятерка [02х01-08 из 32] (2019) SATRip от Files-x

Оригинальное название: Великолепная пятерка
Год выхода: 2019
Жанр: Детектив, драма
Режиссер:  Сергей Полуянов (II)
В ролях: Павел Григорьев, Андрей Горбачёв, Алексей Красноцветов, Нодар Джанелидзе, Константин Гришанов, Егор Кутенков, Ева Жук, Мария Минакова, Илья Рябов, Алёна Леонтьева, Николай Сороканов, Ирина Улановская, Ирина Веснина, Юрий Уткин, Владимир Ковтун, Светлана Терентьева, Олеся Бережная, Анастасия Ярёменко, Валентина Иккерт, Роман Притула, Виктория Горбач-Орлова, Арсений Бородин (II), Данила Пестриков, Арсений Александров

О фильме:
Продолжение детективного сериала о буднях оперов «убойного» отдела Петровского РОВД Петербурга. Майор Павел Шапошников, капитаны Дмитрий Красавченко и Тимур Бубнов, старлей Антон Ветров и лейтенант Владимир Кузьмин — пять героев, пять разных характеров, которые сплотил их командир, подполковник Андрей Голованов. Время изменилось, милиция стала полицией, город преобразился, но человеческие страсти по-прежнему кипят вовсю. Месть, зависть, страх, любострастие, корысть толкают одних на преступления, а честь, совесть, справедливость и смелость заставляют других противостоять злу. Герои «Великолепной Пятерки» ежедневно сталкиваются с бедами простых жителей Петербурга, занимаются расследованием преступлений и наказывают зло. Удивительно, но в этой рутине у них остается время на любовь, дружбу и юмор.

Страна: Россия
Студия: "Триикс Медиа" по заказу Пятого канала
Продолжительность: 8 х 00:40:00
Перевод: Не требуется

Файл
Кодек: XviD
Качество: SATRip
Видео: XviD, ~ 1608 Кбит/с, 720x400, 25 кадр/с
Звук: AC3, 2 ch, 192 Кбит/с

Релиз:


[+] Содержание

(33) 1 серия "Отель «Фонарики»"
(34) 2 серия "Три сестры"
(35) 3 серия "Свадебный фотограф"
(36) 4 серия "Дважды утопленник"
(37) 5 серия "На пределе"
(38) 6 серия "Горькое наследство"
(39) 7 серия "Наследники по кривой"
(40) 8 серия "Американский гость"
(41) 9 серия "Право на защиту"
(42) 10 серия "Портрет в синих тонах"
(43) 11 серия "Ювелиры"
(44) 12 серия "Смерть в морге"
(45) 13 серия ""
(46) 14 серия ""
(47) 15 серия ""
(48) 16 серия ""
(49) 17 серия ""
(50) 18 серия ""
(51) 19 серия ""
(52) 20 серия ""
(53) 21 серия ""
(54) 22 серия ""
(55) 23 серия ""
(56) 24 серия ""
(57) 25 серия ""
(58) 26 серия ""
(59) 27 серия ""
(60) 28 серия ""
(61) 29 серия ""
(62) 30 серия ""
(63) 31 серия ""
(64) 32 серия ""



[+] MediaInfo

General
Complete name : C:33.Великолепная пятёрка.s02.E01.(2019).SATRip.by.Nicodem.Files-x.avi
Format : AVI
Format/Info : Audio Video Interleave
File size : 510 MiB
Duration : 39mn 25s
Overall bit rate : 1 810 Kbps
Writing application : VirtualDubMod 1.5.10.3 | www.virtualdub-fr.org || (build 2550/release)
Writing library : VirtualDubMod build 2550/release

Video
ID : 0
Format : MPEG-4 Visual
Format profile : Advanced Simple@L5
Format settings, BVOP : 1
Format settings, QPel : No
Format settings, GMC : No warppoints
Format settings, Matrix : Custom
Codec ID : XVID
Codec ID/Hint : XviD
Duration : 39mn 25s
Bit rate : 1 608 Kbps
Width : 720 pixels
Height : 400 pixels
Display aspect ratio : 16:9
Frame rate : 25.000 fps
Color space : YUV
Chroma subsampling : 4:2:0
Bit depth : 8 bits
Scan type : Progressive
Compression mode : Lossy
Bits/(Pixel*Frame) : 0.223
Stream size : 454 MiB (89%)
Writing library : XviD 73

Audio
ID : 1
Format : AC-3
Format/Info : Audio Coding 3
Mode extension : CM (complete main)
Codec ID : 2000
Duration : 39mn 25s
Bit rate mode : Constant
Bit rate : 192 Kbps
Channel(s) : 2 channels
Channel positions : Front: L R
Sampling rate : 48.0 KHz
Bit depth : 16 bits
Compression mode : Lossy
Stream size : 54.1 MiB (11%)
Alignment : Split accross interleaves
Interleave, duration : 40 ms (1.00 video frame)
Interleave, preload duration : 500 ms



Скриншоты:
[+] Всего файлов в раздаче - 8:
38.Великолепная пятёрка.s02.E06.(2019).SATRip.by.Nicodem.Files-x.avi510.00 MB
39.Великолепная пятёрка.s02.E07.(2019).SATRip.by.Nicodem.Files-x.avi510.07 MB
37.Великолепная пятёрка.s02.E05.(2019).SATRip.by.Nicodem.Files-x.avi510.07 MB
36.Великолепная пятёрка.s02.E04.(2019).SATRip.by.Nicodem.Files-x.avi510.11 MB
40.Великолепная пятёрка.s02.E08.(2019).SATRip.by.Nicodem.Files-x.avi510.15 MB
34.Великолепная пятёрка.s02.E02.(2019).SATRip.by.Nicodem.Files-x.avi510.24 MB
33.Великолепная пятёрка.s02.E01.(2019).SATRip.by.Nicodem.Files-x.avi510.43 MB
35.Великолепная пятёрка.s02.E03.(2019).SATRip.by.Nicodem.Files-x.avi550.17 MB

Похожие раздачи по запросу - великолепная:
2020-02-20 U Великолепная пятерка [02х01-12 из 32] (2019) SATRip-AVC 5.76 GB ↑ 0 ↓ 1
2020-02-12 U Великолепная пятерка [02х01-06 из 32] (2019) SATRip от Files-x 3.03 GB ↑ 22 ↓ 36
2020-02-11 U Великолепная пятерка [02х01-05 из 32] (2019) SATRip от Files-x 2.53 GB ↑ 19 ↓ 20
2020-02-07 U Великолепная пятерка [02х01-04 из 32] (2019) SATRip от Files-x 2.03 GB ↑ 29 ↓ 20
2020-02-06 U Великолепная пятерка [02х01-03 из 32] (2019) SATRip от Files-x 1.53 GB ↑ 21 ↓ 28
2020-02-05 U Великолепная пятерка [02х01-02 из 32] (2019) SATRip от Files-x 1,020.67 MB ↑ 31 ↓ 15

Отзывы
Apolon
Посмотрел первый сезон пару серий - отстой! Скучно! Все серии какие-то одинаковые! Не хватает изюминки!

Зарегистрируйтесь чтобы добавить комментарий.
Обратная связь
Copyleft ©