↑↓torrent.by
Поиск
Логин: Регистрация
Пароль: Восстановить пароль

Ford против Ferrari / Ford v Ferrari (2019) BDRemux 1080p от селезень | D, P | iTunes

Скачать ford-protiv-ferrari-v-2019-bdremux-1080p-ot-selezen-d-p-itunes.torrent
U Магнитная ссылка Размер: 31.57 GB Раздают: 49 Качают: 105 Добавлен: 2020-02-14 09:54:52
Ford против Ferrari / Ford v Ferrari (2019) BDRemux 1080p от селезень | D, P | iTunes

Название: Ford против Ferrari
Оригинальное название: Ford v Ferrari
Год выхода: 2019
Жанр: Драма, биография, спорт
Режиссер: Джеймс Мэнголд
В ролях: Кристиан Бэйл, Мэтт Дэймон, Катрина Балф, Трэйси Леттс, Джон Бернтал, Ноа Джуп, Джош Лукас, Ремо Джироне, Рэй МакКиннон, Джей Джей Филд

О фильме: Фильм рассказывает о взаимоотношениях американского автомобильного конструктора Кэрролла Шелби и отважного британского гонщика Кена Майлза, которые вместе бросили вызов корпорациям и собственным демонам, чтобы создать абсолютно новый спорткар, который смог конкурировать с Ferrari на чемпионате мира, прошедшем во Франции в середине 1960-х.

Страна: США, Франция
Студия: Chernin Entertainment, 20th Century Fox Film Corporation
Продолжительность: 02:32:35
Перевод(ы):
#1: Дублированный | iTunes
#2: Профессиональный многоголосый | HDRezka Studio

Качество: BDRemux 1080p
Видео: MPEG-4 AVC, 1920x1080, 23.4 Mbit/s, 23.976 fps
Аудио #01: 48 kHz, AC3, 5.1, 384 Kbps | Дублированный | RUS |
Аудио #02: 48 kHz, AC3, 5.1, 448 Kbps | Профессиональный многоголосый | RUS |
Аудио #03: 48 kHz, AC3, 2.0, 192 Kbps | Дублированный | UKR |
Аудио #04: 48 kHz, DTS-HD MA, 7.1, 5158 Kbps | Оригинал |  ENG |
Субтитры: Русские (Forced, full), украинские (Forced, full), английские

Релиз:


[+] MI
General
Unique ID                   : 328629887508321042797024934036336274100 (0xF73BD068AE0D93EE533226AF6437EAB4)
Complete name               : E:Video111Ford.v.Ferrari.2019.BDREMUX.1080p.seleZen.mkv
Format                      : Matroska
Format version              : Version 4
File size                   : 31.6 GiB
Duration                    : 2 h 32 min
Overall bit rate mode       : Variable
Overall bit rate            : 29.6 Mb/s
Movie name                  : Ford v Ferrari 2019 from селезень
Encoded date                : UTC 2020-02-13 20:02:49
Writing application         : mkvmerge v40.0.0 ('Old Town Road + Pony') 64-bit
Writing library             : libebml v1.3.9 + libmatroska v1.5.2

Video
ID                          : 1
Format                      : AVC
Format/Info                 : Advanced Video Codec
Format profile              : High@L4.1
Format settings             : CABAC / 4 Ref Frames
Format settings, CABAC      : Yes
Format settings, Reference  : 4 frames
Codec ID                    : V_MPEG4/ISO/AVC
Duration                    : 2 h 32 min
Bit rate mode               : Variable
Bit rate                    : 23.4 Mb/s
Maximum bit rate            : 34.0 Mb/s
Width                       : 1 920 pixels
Height                      : 1 080 pixels
Display aspect ratio        : 16:9
Frame rate mode             : Constant
Frame rate                  : 23.976 (24000/1001) FPS
Color space                 : YUV
Chroma subsampling          : 4:2:0
Bit depth                   : 8 bits
Scan type                   : Progressive
Bits/(Pixel*Frame)          : 0.471
Stream size                 : 25.0 GiB (79%)
Language                    : English
Default                     : Yes
Forced                      : No

Audio #1
ID                          : 2
Format                      : AC-3
Format/Info                 : Audio Coding 3
Commercial name             : Dolby Digital
Codec ID                    : A_AC3
Duration                    : 2 h 32 min
Bit rate mode               : Constant
Bit rate                    : 384 kb/s
Channel(s)                  : 6 channels
Channel layout              : L R C LFE Ls Rs
Sampling rate               : 48.0 kHz
Frame rate                  : 31.250 FPS (1536 SPF)
Compression mode            : Lossy
Stream size                 : 419 MiB (1%)
Title                       : iTunes
Language                    : Russian
Service kind                : Complete Main
Default                     : Yes
Forced                      : Yes

Audio #2
ID                          : 3
Format                      : AC-3
Format/Info                 : Audio Coding 3
Commercial name             : Dolby Digital
Codec ID                    : A_AC3
Duration                    : 2 h 32 min
Bit rate mode               : Constant
Bit rate                    : 448 kb/s
Channel(s)                  : 6 channels
Channel layout              : L R C LFE Ls Rs
Sampling rate               : 48.0 kHz
Frame rate                  : 31.250 FPS (1536 SPF)
Compression mode            : Lossy
Stream size                 : 489 MiB (2%)
Title                       : MVO [HDRezka Studio]
Language                    : Russian
Service kind                : Complete Main
Default                     : No
Forced                      : No

Audio #3
ID                          : 4
Format                      : AC-3
Format/Info                 : Audio Coding 3
Commercial name             : Dolby Digital
Codec ID                    : A_AC3
Duration                    : 2 h 32 min
Bit rate mode               : Constant
Bit rate                    : 192 kb/s
Channel(s)                  : 2 channels
Channel layout              : L R
Sampling rate               : 48.0 kHz
Frame rate                  : 31.250 FPS (1536 SPF)
Compression mode            : Lossy
Stream size                 : 210 MiB (1%)
Title                       : iTunes
Language                    : Ukrainian
Service kind                : Complete Main
Default                     : No
Forced                      : No

Audio #4
ID                          : 5
Format                      : DTS ES XLL
Format/Info                 : Digital Theater Systems
Commercial name             : DTS-HD Master Audio
Codec ID                    : A_DTS
Duration                    : 2 h 32 min
Bit rate mode               : Variable
Bit rate                    : 5 158 kb/s
Channel(s)                  : 8 channels
Channel layout              : C L R Ls Rs LFE Lb Rb
Sampling rate               : 48.0 kHz
Frame rate                  : 93.750 FPS (512 SPF)
Bit depth                   : 24 bits
Compression mode            : Lossless
Stream size                 : 5.50 GiB (17%)
Title                       : Original
Language                    : English
Default                     : No
Forced                      : No

Text #1
ID                          : 6
Format                      : UTF-8
Codec ID                    : S_TEXT/UTF8
Codec ID/Info               : UTF-8 Plain Text
Duration                    : 2 h 31 min
Bit rate                    : 0 b/s
Count of elements           : 14
Stream size                 : 601 Bytes (0%)
Title                       : Forced [iTunes]
Language                    : Russian
Default                     : Yes
Forced                      : Yes

Text #2
ID                          : 7
Format                      : UTF-8
Codec ID                    : S_TEXT/UTF8
Codec ID/Info               : UTF-8 Plain Text
Duration                    : 2 h 31 min
Bit rate                    : 85 b/s
Count of elements           : 2067
Stream size                 : 94.8 KiB (0%)
Title                       : Full [iTunes]
Language                    : Russian
Default                     : No
Forced                      : No

Text #3
ID                          : 8
Format                      : UTF-8
Codec ID                    : S_TEXT/UTF8
Codec ID/Info               : UTF-8 Plain Text
Duration                    : 2 h 25 min
Bit rate                    : 1 b/s
Count of elements           : 19
Stream size                 : 1.21 KiB (0%)
Title                       : Forced [no name]
Language                    : Russian
Default                     : No
Forced                      : No

Text #4
ID                          : 9
Format                      : UTF-8
Codec ID                    : S_TEXT/UTF8
Codec ID/Info               : UTF-8 Plain Text
Duration                    : 2 h 26 min
Bit rate                    : 82 b/s
Count of elements           : 1652
Stream size                 : 87.8 KiB (0%)
Title                       : Full [blindAvocado]
Language                    : Russian
Default                     : No
Forced                      : No

Text #5
ID                          : 10
Format                      : UTF-8
Codec ID                    : S_TEXT/UTF8
Codec ID/Info               : UTF-8 Plain Text
Duration                    : 2 h 31 min
Bit rate                    : 1 b/s
Count of elements           : 31
Stream size                 : 1.54 KiB (0%)
Title                       : Forced
Language                    : Ukrainian
Default                     : No
Forced                      : No

Text #6
ID                          : 11
Format                      : UTF-8
Codec ID                    : S_TEXT/UTF8
Codec ID/Info               : UTF-8 Plain Text
Duration                    : 2 h 31 min
Bit rate                    : 91 b/s
Count of elements           : 2071
Stream size                 : 101 KiB (0%)
Title                       : Full
Language                    : Ukrainian
Default                     : No
Forced                      : No

Text #7
ID                          : 12
Format                      : UTF-8
Codec ID                    : S_TEXT/UTF8
Codec ID/Info               : UTF-8 Plain Text
Duration                    : 1 h 24 min
Bit rate                    : 0 b/s
Count of elements           : 9
Stream size                 : 304 Bytes (0%)
Title                       : Forced
Language                    : English
Default                     : No
Forced                      : No

Text #8
ID                          : 13
Format                      : UTF-8
Codec ID                    : S_TEXT/UTF8
Codec ID/Info               : UTF-8 Plain Text
Duration                    : 2 h 24 min
Bit rate                    : 51 b/s
Count of elements           : 1638
Stream size                 : 54.8 KiB (0%)
Title                       : Full
Language                    : English
Default                     : No
Forced                      : No

Text #9
ID                          : 14
Format                      : UTF-8
Codec ID                    : S_TEXT/UTF8
Codec ID/Info               : UTF-8 Plain Text
Duration                    : 2 h 32 min
Bit rate                    : 66 b/s
Count of elements           : 2489
Stream size                 : 73.8 KiB (0%)
Title                       : SDH
Language                    : English
Default                     : No
Forced                      : No

Menu
00:00:00.000                : en:Глава 01
00:04:45.619                : en:Глава 02
00:07:32.535                : en:Глава 03
00:10:02.811                : en:Глава 04
00:15:39.313                : en:Глава 05
00:20:15.172                : en:Глава 06
00:21:39.798                : en:Глава 07
00:26:00.893                : en:Глава 08
00:31:57.874                : en:Глава 09
00:34:09.756                : en:Глава 10
00:39:13.268                : en:Глава 11
00:42:06.899                : en:Глава 12
00:45:57.004                : en:Глава 13
00:48:38.666                : en:Глава 14
00:51:22.079                : en:Глава 15
00:55:03.675                : en:Глава 16
00:57:50.801                : en:Глава 17
01:00:27.040                : en:Глава 18
01:06:33.489                : en:Глава 19
01:11:59.815                : en:Глава 20
01:16:13.778                : en:Глава 21
01:19:30.516                : en:Глава 22
01:24:18.762                : en:Глава 23
01:29:24.985                : en:Глава 24
01:33:16.174                : en:Глава 25
01:38:11.302                : en:Глава 26
01:40:57.468                : en:Глава 27
01:43:23.322                : en:Глава 28
01:45:49.218                : en:Глава 29
01:50:38.966                : en:Глава 30
01:53:38.353                : en:Глава 31
01:57:47.602                : en:Глава 32
02:00:16.668                : en:Глава 33
02:05:22.890                : en:Глава 34
02:09:18.376                : en:Глава 35
02:12:01.497                : en:Глава 36
02:15:26.410                : en:Глава 37
02:18:23.128                : en:Глава 38
02:20:46.438                : en:Глава 39
02:26:27.612                : en:Глава 40



Скриншоты:
[+] Всего файлов в раздаче - 1:
Ford.v.Ferrari.2019.BDREMUX.1080p.seleZen.mkv31.57 GB

Показать еще раздачи по запросу ford:
2020-02-22 U Ford против Ferrari / Ford v Ferrari (2019) BDRip 720p от Scarabey | iTunes 6.22 GB ↑ 80 ↓ 29
2020-02-19 U Ford против Ferrari / Ford v Ferrari (2019) BDRip от Twister & ExKinoRay | iTunes 1.46 GB ↑ 41 ↓ 13
2020-02-19 U Ford против Ferrari / Ford v Ferrari (2019) BDRip от Twister & ExKinoRay | iTunes 2.12 GB ↑ 30 ↓ 9
2020-02-15 U Ford против Ferrari / Форд против Феррари / Ford v Ferrari (2019) BDRip 1080p от qqss44 & MegaPeer | iTunes 9.47 GB ↑ 36 ↓ 41
2020-02-14 U Ford против Ferrari / Ford v Ferrari (2019) BDRip-HEVC 1080p от HEVC-CLUB | iTunes 8.60 GB ↑ 67 ↓ 100
2020-02-14 U Ford против Ferrari / Ford v Ferrari (2019) UHD BDRemux 2160p от селезень | 4K | HDR | D, P | iTunes 48.20 GB ↑ 55 ↓ 190
2020-02-14 U Ford против Ferrari / Ford v Ferrari (2019) BDRip 720p от ExKinoRay | iTunes 6.37 GB ↑ 54 ↓ 55

Отзывы
Зарегистрируйтесь чтобы добавить комментарий.
Обратная связь
Copyleft ©