↑↓torrent.by
Поиск
Логин: Регистрация
Пароль: Восстановить пароль

Эверест / Abominable (2019) BDRip-AVC от OlLanDGroup | Лицензия

Скачать everest-abominable-2019-bdrip-avc-ot-ollandgroup-licenziya.torrent
U Магнитная ссылка Размер: 1.72 GB Раздают: 107 Качают: 15 Добавлен: 2020-02-15 13:33:54
Эверест / Abominable (2019) BDRip-AVC от OlLanDGroup | Лицензия

Информация
Название: Эверест
Оригинальное название: Abominable
Год выпуска: 2019
Жанр: Мультфильм, фэнтези, комедия, приключения, семейный, полнометражный
Режиссер: Джилл Калтон, Тодд Вилдерман
В ролях: Хлоя Беннет, Альберт Цай, Тензинг Норгай Трэйнор, Джозеф Иццо, Эдди Иззард, Сара Полсон, Цай Чинь, Мишель Вонг, Рич Дитль, Джеймс Хонг

Описание:
Путешествие на самую высокую точку мира? Что может быть круче! Так решает Лу, когда случайно находит огромное, но очень милое чудовище посреди шумного мегаполиса. Пусть их преследуют ученые из сверхсекретной лаборатории, зато её новый друг умеет смешить и творить чудеса. Лу уверена, что поможет дружелюбному йети вернуться домой - на Эверест.

Страна: Китай, США
Студия: DreamWorks Animation, Pearl Studio
Продолжительность: 01:37:12
Перевод: Дублированный | Лицензия BD 3D EUR

Файл
Формат: MKV
Качество: BDRip-AVC
Видео: 1024x554 (1.85:1), 23,976 fps, x264 ~2 078 kbps avg, 0.153 bit/pixel
Звук: 48 kHz, AC3 Dolby Digital, 3/2 (L,C,R,l,r) + LFE ch, ~448 kbps | RUS | Лицензия BD 3D EUR
Субтитры: Russian (Forced), Russian (Full), English, English (SDH)

Релиз:


[+] MediaInfo:
General
Unique ID                      : 53555393227811397336931571191233451815 (0x284A64BFB2D34D39CEFE571F04D51727)
Complete name                  : D:OlLanDGroupAbominable.2019.BDRip(AVC).Dub.OllanDGroup.mkv
Format                         : Matroska
Format version                 : Version 4
File size                      : 1.72 GiB
Duration                       : 1 h 37 min
Overall bit rate               : 2 528 kb/s
Movie name                     : Abominable 2019   #TorpedoUK#
Encoded date                   : UTC 2020-02-13 05:02:05
Writing application            : mkvmerge v31.0.0 ('Dolores In A Shoestand') 64-bit
Writing library                : libebml v1.3.6 + libmatroska v1.4.9

Video
ID                             : 1
Format                         : AVC
Format/Info                    : Advanced Video Codec
Format profile                 : High@L4.1
Format settings                : CABAC / 10 Ref Frames
Format settings, CABAC         : Yes
Format settings, ReFrames      : 10 frames
Codec ID                       : V_MPEG4/ISO/AVC
Duration                       : 1 h 37 min
Bit rate                       : 2 078 kb/s
Width                          : 1 024 pixels
Height                         : 554 pixels
Display aspect ratio           : 1.85:1
Frame rate mode                : Constant
Frame rate                     : 23.976 (24000/1001) FPS
Color space                    : YUV
Chroma subsampling             : 4:2:0
Bit depth                      : 8 bits
Scan type                      : Progressive
Bits/(Pixel*Frame)             : 0.153
Stream size                    : 1.41 GiB (82%)
Title                          : Abominable 2019   #TorpedoUK#
Writing library                : x264 core 146 r2538 121396c
Encoding settings              : cabac=1 / ref=10 / deblock=1:-3:-3 / analyse=0x3:0x113 / me=umh / subme=11 / psy=1 / psy_rd=1.00:0.03 / mixed_ref=1 / me_range=48 / chroma_me=1 / trellis=2 / 8x8dct=1 / cqm=0 / deadzone=21,11 / fast_pskip=1 / chroma_qp_offset=-6 / threads=6 / lookahead_threads=1 / sliced_threads=0 / nr=0 / decimate=1 / interlaced=0 / bluray_compat=0 / constrained_intra=0 / bframes=11 / b_pyramid=2 / b_adapt=2 / b_bias=0 / direct=3 / weightb=1 / open_gop=0 / weightp=2 / keyint=240 / keyint_min=23 / scenecut=40 / intra_refresh=0 / rc_lookahead=40 / rc=2pass / mbtree=0 / bitrate=2078 / ratetol=1.0 / qcomp=0.60 / qpmin=0 / qpmax=69 / qpstep=4 / cplxblur=20.0 / qblur=0.5 / vbv_maxrate=50000 / vbv_bufsize=62500 / nal_hrd=none / filler=0 / ip_ratio=1.40 / pb_ratio=1.30 / aq=1:1.00
Language                       : English
Default                        : Yes
Forced                         : No

Audio
ID                             : 2
Format                         : AC-3
Format/Info                    : Audio Coding 3
Commercial name                : Dolby Digital
Codec ID                       : A_AC3
Duration                       : 1 h 37 min
Bit rate mode                  : Constant
Bit rate                       : 448 kb/s
Channel(s)                     : 6 channels
Channel layout                 : L R C LFE Ls Rs
Sampling rate                  : 48.0 kHz
Frame rate                     : 31.250 FPS (1536 SPF)
Bit depth                      : 16 bits
Compression mode               : Lossy
Stream size                    : 312 MiB (18%)
Title                          : DUB | Лицензия BD 3D EUR
Language                       : Russian
Service kind                   : Complete Main
Default                        : Yes
Forced                         : No

Text #1
ID                             : 3
Format                         : UTF-8
Codec ID                       : S_TEXT/UTF8
Codec ID/Info                  : UTF-8 Plain Text
Duration                       : 1 h 23 min
Bit rate                       : 0 b/s
Count of elements              : 9
Stream size                    : 325 Bytes (0%)
Title                          : Forced
Language                       : Russian
Default                        : Yes
Forced                         : No

Text #2
ID                             : 4
Format                         : UTF-8
Codec ID                       : S_TEXT/UTF8
Codec ID/Info                  : UTF-8 Plain Text
Duration                       : 1 h 25 min
Bit rate                       : 67 b/s
Count of elements              : 998
Stream size                    : 42.3 KiB (0%)
Title                          : Full
Language                       : Russian
Default                        : No
Forced                         : No

Text #3
ID                             : 5
Format                         : UTF-8
Codec ID                       : S_TEXT/UTF8
Codec ID/Info                  : UTF-8 Plain Text
Duration                       : 1 h 25 min
Bit rate                       : 45 b/s
Count of elements              : 1090
Stream size                    : 28.3 KiB (0%)
Language                       : English
Default                        : No
Forced                         : No

Text #4
ID                             : 6
Format                         : UTF-8
Codec ID                       : S_TEXT/UTF8
Codec ID/Info                  : UTF-8 Plain Text
Duration                       : 1 h 35 min
Bit rate                       : 53 b/s
Count of elements              : 1545
Stream size                    : 37.5 KiB (0%)
Title                          : SDH
Language                       : English
Default                        : No
Forced                         : No

Menu
00:00:00.000                   : en:Глава 01
00:04:11.835                   : en:Глава 02
00:09:10.884                   : en:Глава 03
00:13:42.238                   : en:Глава 04
00:16:13.598                   : en:Глава 05
00:21:34.752                   : en:Глава 06
00:25:02.459                   : en:Глава 07
00:29:30.435                   : en:Глава 08
00:33:57.452                   : en:Глава 09
00:36:43.785                   : en:Глава 10
00:41:53.010                   : en:Глава 11
00:46:30.705                   : en:Глава 12
00:50:42.331                   : en:Глава 13
00:56:31.555                   : en:Глава 14
01:01:40.530                   : en:Глава 15
01:06:33.198                   : en:Глава 16
01:11:44.425                   : en:Глава 17
01:15:26.355                   : en:Глава 18
01:20:41.545                   : en:Глава 19
01:26:44.408                   : en:Глава 20



Скриншоты:
[+] Всего файлов в раздаче - 1:
Abominable.2019.BDRip(AVC).Dub.OllanDGroup.mkv1.72 GB

Похожие раздачи по запросу - эверест:
2020-02-13 U Эверест / Abominable (2019) BDRip от MegaPeer | Лицензия 1.46 GB ↑ 126 ↓ 14
2019-12-14 U Эверест / Abominable (2019) BDRip-AVC от OlLanDGroup | iTunes 1.67 GB ↑ 239 ↓ 32
2019-12-08 U Эверест / Abominable (2019) HDRip | iTunes 744.45 MB ↑ 109 ↓ 14
2019-12-08 U Эверест / Abominable (2019) WEB-DLRip-AVC | iTunes 1.94 GB ↑ 251 ↓ 33
2019-11-29 U Эверест / Abominable (2019) WEB-DLRip-AVC от OlLanDGroup | iTunes 1К745.85 MB ↑ 134 ↓ 17
2019-11-28 U Эверест / Abominable (2019) WEB-DLRip от MegaPeer | iTunes 1.46 GB ↑ 226 ↓ 67

Отзывы
Зарегистрируйтесь чтобы добавить комментарий.
Обратная связь
Copyleft ©