↑↓torrent.by
Поиск
Логин: Регистрация
Пароль: Восстановить пароль

Идеальный пациент / Quick / The Perfect Patient (2019) BDRip 1080p от селезень | iTunes

Скачать idealnyy-pacient-quick-the-perfect-patient-2019-bdrip-1080p-ot-selezen-itunes.torrent
U Магнитная ссылка Размер: 11.36 GB Раздают: 312 Качают: 60 Добавлен: 2020-02-16 06:33:08
Идеальный пациент / Quick / The Perfect Patient (2019) BDRip 1080p от селезень | iTunes

Название: Идеальный пациент
Оригинальное название: The Perfect Patient
Год выхода: 2019
Жанр: Триллер
Режиссер: Микаэль Хофстрём
В ролях: Йонас Карлссон, Давид Денсик, Альба Аугуст, Сюзанн Рейтер, Линда Ульвеус, Кристофер Вагелин, Това Магнуссон-Норлинг, Даг Малмберг, Магнус Роосманн, Бьёрн Бенгтссон

О фильме: Его изощренному уму позавидовал бы сам Ганнибал Лектер. Десятки жертв по всей стране и никаких улик. Единственный свидетель - он сам, сдавшийся на милость правосудия. Что это, муки совести или очередной ход в его чудовищной игре? В клетку со зверем заходит журналист.

Страна: Швеция
Студия: Brain Academy, Film i Väst, Nordisk Film
Продолжительность: 02:11:21
Перевод: Дублированный | iTunes

Качество: BDRip 1080p
Видео: MPEG-4 AVC, 1920x722, 11.4 Mbit/s, 24 fps
Аудио #01: 48 kHz, AC3, 5.1, 384 Kbps | iTunes | RUS |
Аудио #02: 48 kHz, AC3, 5.1, 640 Kbps | Оригинал |  SWE |
Субтитры: Нет

Релиз:


[+] MI
General
Unique ID                   : 34154023100279633588746209053232486954 (0x19B1D35946F7908DEEDE170AF46A5A2A)
Complete name               : E:Video111The.Perfect.Patient.AKA.Quick.2019.BDRip.1080p.seleZen.mkv
Format                      : Matroska
Format version              : Version 4
File size                   : 11.4 GiB
Duration                    : 2 h 11 min
Overall bit rate            : 12.4 Mb/s
Movie name                  : The Perfect Patient / Quick (2019) from селезень
Encoded date                : UTC 2020-02-15 18:18:00
Writing application         : mkvmerge v40.0.0 ('Old Town Road + Pony') 64-bit
Writing library             : libebml v1.3.9 + libmatroska v1.5.2

Video
ID                          : 1
Format                      : AVC
Format/Info                 : Advanced Video Codec
Format profile              : High@L4.1
Format settings             : CABAC / 6 Ref Frames
Format settings, CABAC      : Yes
Format settings, Reference  : 6 frames
Codec ID                    : V_MPEG4/ISO/AVC
Duration                    : 2 h 11 min
Bit rate                    : 11.4 Mb/s
Width                       : 1 920 pixels
Height                      : 722 pixels
Display aspect ratio        : 2.659
Frame rate mode             : Constant
Frame rate                  : 24.000 FPS
Color space                 : YUV
Chroma subsampling          : 4:2:0
Bit depth                   : 8 bits
Scan type                   : Progressive
Bits/(Pixel*Frame)          : 0.342
Stream size                 : 10.4 GiB (92%)
Title                       : Encoded by seleZen
Writing library             : x264 core 142 r2431+42 c69a006 tMod [8-bit@all X86_64]
Encoding settings           : cabac=1 / ref=6 / deblock=1:-2:-2 / analyse=0x3:0x133 / me=umh / subme=10 / psy=1 / fade_compensate=0.00 / psy_rd=1.00:0.00 / mixed_ref=1 / me_range=32 / chroma_me=1 / trellis=2 / 8x8dct=1 / cqm=0 / deadzone=21,11 / fast_pskip=0 / chroma_qp_offset=-2 / threads=24 / lookahead_threads=4 / sliced_threads=0 / nr=0 / decimate=0 / interlaced=0 / bluray_compat=0 / constrained_intra=0 / fgo=0 / bframes=8 / b_pyramid=2 / b_adapt=2 / b_bias=0 / direct=3 / weightb=1 / open_gop=0 / weightp=2 / keyint=240 / keyint_min=24 / scenecut=40 / intra_refresh=0 / rc_lookahead=50 / rc=2pass / mbtree=0 / bitrate=11370 / ratetol=1.0 / qcomp=0.60 / qpmin=0:0:0 / qpmax=51:51:51 / qpstep=4 / cplxblur=20.0 / qblur=0.5 / vbv_maxrate=50000 / vbv_bufsize=62500 / nal_hrd=none / filler=0 / ip_ratio=1.40 / pb_ratio=1.30 / aq=3:0.80 / aq-sensitivity=10.00 / aq-factor=1.00:1.00:1.00 / aq2=0 / aq3=0
Language                    : English
Default                     : Yes
Forced                      : No

Audio #1
ID                          : 2
Format                      : AC-3
Format/Info                 : Audio Coding 3
Commercial name             : Dolby Digital
Codec ID                    : A_AC3
Duration                    : 2 h 11 min
Bit rate mode               : Constant
Bit rate                    : 384 kb/s
Channel(s)                  : 6 channels
Channel layout              : L R C LFE Ls Rs
Sampling rate               : 48.0 kHz
Frame rate                  : 31.250 FPS (1536 SPF)
Compression mode            : Lossy
Stream size                 : 361 MiB (3%)
Title                       : iTunes
Language                    : Russian
Service kind                : Complete Main
Default                     : Yes
Forced                      : Yes

Audio #2
ID                          : 3
Format                      : AC-3
Format/Info                 : Audio Coding 3
Commercial name             : Dolby Digital
Codec ID                    : A_AC3
Duration                    : 2 h 11 min
Bit rate mode               : Constant
Bit rate                    : 640 kb/s
Channel(s)                  : 6 channels
Channel layout              : L R C LFE Ls Rs
Sampling rate               : 48.0 kHz
Frame rate                  : 31.250 FPS (1536 SPF)
Compression mode            : Lossy
Stream size                 : 601 MiB (5%)
Title                       : Original
Language                    : Swedish
Service kind                : Complete Main
Default                     : No
Forced                      : No

Menu
00:00:00.000                : sv:Глава 01
00:10:20.292                : sv:Глава 02
00:20:41.875                : sv:Глава 03
00:31:10.958                : sv:Глава 04
00:40:48.333                : sv:Глава 05
00:51:13.292                : sv:Глава 06
01:01:44.667                : sv:Глава 07
01:12:32.417                : sv:Глава 08
01:23:08.500                : sv:Глава 09
01:32:45.667                : sv:Глава 10
01:43:23.417                : sv:Глава 11
01:53:34.292                : sv:Глава 12
02:02:59.625                : sv:Глава 13



Скриншоты:
[+] Всего файлов в раздаче - 1:
The.Perfect.Patient.AKA.Quick.2019.BDRip.1080p.seleZen.mkv11.36 GB

Показать еще раздачи по запросу идеальный:
2020-03-02 U (НЕ)идеальный мужчина (2020) WEB-DLRip-AVC | iTunes 1.46 GB ↑ 224 ↓ 57
2020-03-02 U (НЕ)идеальный мужчина (2020) WEB-DL 720p | iTunes 2.72 GB ↑ 126 ↓ 41
2020-03-02 U (НЕ)идеальный мужчина (2020) WEB-DLRip | iTunes 740.14 MB ↑ 367 ↓ 70
2020-03-02 U (НЕ)идеальный мужчина (2020) WEB-DLRip | iTunes 1.46 GB ↑ 549 ↓ 166
2020-03-02 U (НЕ)идеальный мужчина (2020) WEB-DL 1080p | iTunes 3.11 GB ↑ 933 ↓ 316
2020-01-28 U Идеальный пациент / The Perfect Patient (2019) WEB-DLRip-AVC от ExKinoRay | iTunes 1.98 GB ↑ 315 ↓ 49
2020-01-28 U Идеальный пациент / The Perfect Patient (2019) WEB-DL 1080p | iTunes 4.54 GB ↑ 543 ↓ 300

Отзывы
Зарегистрируйтесь чтобы добавить комментарий.
Обратная связь
Copyleft ©