↑↓torrent.by
Поиск
Логин: Регистрация
Пароль: Восстановить пароль

Межвидовые рецензенты / Ishuzoku Reviewers [01x01-06 из 12] (2020) HDTVRip от Deadmauvlad | D | Без Цензуры

Скачать mezhvidovye-recenzenty-ishuzoku-reviewers-01x01-06-iz-12-2020-hdtvrip-ot-deadmauvlad-d-bez-cenzury.torrent
U Магнитная ссылка Размер: 1.71 GB Раздают: 75 Качают: 21 Добавлен: 2020-02-16 13:47:49
Межвидовые рецензенты / Ishuzoku Reviewers [01x01-06 из 12] (2020) HDTVRip от Deadmauvlad | D | Без Цензуры

Информация о фильме
Название: Межвидовые рецензенты
Оригинальное название: Ishuzoku Reviewers
Год выхода: 2020
Жанр:  этти, комедия, фэнтези
Режиссер: Юки Огава
В ролях: Majima Junji, Tanaka Takako, Yuasa Kaede, Nukui Yuka, Koichi Makoto, Koyama Momoyo, Matsuzaki Rei, Tomita Miyu, Hikasa Youko, Kobayashi Yuusuke

О фильме:
Действие истории происходит в вымышленном мире, населённом различными расами разумных существ, в котором существует процветающий рынок интимных услуг. Благодаря такому высокому развитию секс-индустрии в мире появились профессиональные критики, специализирующиеся исключительно на оценке качества проституток. Одними из них являются человек Станк и эльф Зел, путешествующие из города в город для оценки каждого местного квартала красных фонарей, после чего посылают свои обзоры для составления сводного рейтинга борделей. Объединившись с ангелом по имени Крим, критики собирают информацию о сексуальных достоинствах всех видов живых существ этого мира, получая удовольствие от процесса и зарабатывая попутно дополнительные деньги

Цензура: Отсутствует**
Страна: Япония
Продолжительность: ~ 00:24:00 (серия)
Перевод: Дублированный | StudioBand [Wakanim]

Файл
Формат: AVI
Кодек: XviD
Качество: HDTVRip [Ishuzoku Reviewers - 01 (AT-X 1920x1080).ts (957.8 MiB)]
Видео: 720x400 (16:9), 25.000 fps, 1659 Кбит/сек (0.230 bit/pixel)
Аудио : AC3, 48,0 КГц, 2 ch, 192 Кбит/сек, CBR

Релиз / Автор рипа: Deadmauvlad >_<

✦ ✦Аниме Без цензуры ©  ✦ ✦
[+] Список Серий
01. Спор о дамах средних лет. Восхождение ангела в «Рай кисок». Чувствительная клоака гарпии!
02. Феям подойдёт не каждый размер. Демоны не слишком популярны. У минотавров всё подпрыгивает и даёт много молочка!
03. Не все хотят развлекаться с мужчинами в женском обличье. Это больно, зато можно понять, что чувствуют женщины. Один раз стоит попробовать!
04. Низшие демоны разврата выжимают тебя без остатка. Саламандры — горячие штучки, но можно серьёзно обжечься.



[+] MediaInfo
Общее
Полное имя                               : Ishuzoku Reviewers.S01.2020.HDTVRip.Uncensored.Deadmauvlad.Ep.01.avi
Формат                                   : AVI
Формат/Информация                        : Audio Video Interleave
Размер файла                             : 313 Мбайт
Продолжительность                        : 23 м. 29 с.
Общий поток                              : 1860 Кбит/сек
Название фильма                          : Ishuzoku Reviewers.S01.2020.HDTVRip.Uncensored.Deadmauvlad.Ep.01
Режиссёр                                 : Encoder by Deadmauvlad
Жанр                                     : этти
Программа кодирования                    : VirtualDubMod 1.5.10.3 | www.virtualdub-fr.org || (build 2550/release)
Формат оригинала/Имя                     : Аниме
Авторское право                          : Encoder by Deadmauvlad
Примечание                               : Encoder by Deadmauvlad

Видео
Идентификатор                            : 0
Формат                                   : MPEG-4 Visual
Профиль формата                          : Advanced Simple@L5
Настройки формата                        : BVOP1 / Custom Matrix
Параметр BVOP формата                    : 1
Параметр QPel формата                    : Нет
Параметр GMC формата                     : Без точки перехода
Параметр матрицы формата                 : Выборочная
Идентификатор кодека                     : XVID
Идентификатор кодека/Подсказка           : XviD
Продолжительность                        : 23 м. 29 с.
Битрейт                                  : 1659 Кбит/сек
Ширина                                   : 720 пикселей
Высота                                   : 400 пикселей
Соотношение сторон                       : 16:9
Частота кадров                           : 25,000 кадров/сек
Цветовое пространство                    : YUV
Субдискретизация насыщенности            : 4:2:0
Битовая глубина                          : 8 бит
Тип развёртки                            : Прогрессивная
Метод сжатия                             : С потерями
Бит/(Пиксели*Кадры)                      : 0.230
Размер потока                            : 279 Мбайт (89%)
Библиотека кодирования                   : XviD 73

Аудио
Идентификатор                            : 1
Формат                                   : AC-3
Формат/Информация                        : Audio Coding 3
Коммерческое название                    : Dolby Digital
Идентификатор кодека                     : 2000
Продолжительность                        : 23 м. 29 с.
Вид битрейта                             : Постоянный
Битрейт                                  : 192 Кбит/сек
Каналы                                   : 2 канала
Channel layout                           : L R
Частота                                  : 48,0 КГц
Частота кадров                           : 31,250 кадров/сек (1536 SPF)
Битовая глубина                          : 16 бит
Метод сжатия                             : С потерями
Размер потока                            : 32,3 Мбайт (10%)
Выравнивание                             : Разделение по промежуткам
Продолжительность промежутка             : 40  мс. (1,00 видеокадр)
Время предзагрузки промежутка            : 500  мс.



Скриншоты:
[+] Всего файлов в раздаче - 6:
Ishuzoku Reviewers.S01.2020.HDTVRip.Uncensored.Deadmauvlad.Ep.01.avi312.57 MB
Ishuzoku Reviewers.S01.2020.HDTVRip.Uncensored.Deadmauvlad.Ep.02.avi283.06 MB
Ishuzoku Reviewers.S01.2020.HDTVRip.Uncensored.Deadmauvlad.Ep.03.avi283.06 MB
Ishuzoku Reviewers.S01.2020.HDTVRip.Uncensored.Deadmauvlad.Ep.04.avi289.01 MB
Ishuzoku Reviewers.S01.2020.HDTVRip.Uncensored.Deadmauvlad.Ep.05.avi300.40 MB
Ishuzoku Reviewers.S01.2020.HDTVRip.Uncensored.Deadmauvlad.Ep.06.avi283.07 MB

Отзывы
Зарегистрируйтесь чтобы добавить комментарий.
Обратная связь
Copyleft ©