↑↓torrent.by
Поиск
Логин: Регистрация
Пароль: Восстановить пароль

Холодное сердце 2 / Frozen II (2019) BDRemux 1080p от селезень | iTunes

Скачать holodnoe-serdce-2-frozen-ii-2019-bdremux-1080p-ot-selezen-itunes.torrent
U Магнитная ссылка Размер: 19.88 GB Раздают: 44 Качают: 28 Добавлен: 2020-02-17 04:33:34
Холодное сердце 2 / Frozen II (2019) BDRemux 1080p от селезень | iTunes

Название: Холодное сердце 2
Оригинальное название: Frozen II
Год выхода: 2019
Жанр: Мультфильм, мюзикл, фэнтези, комедия, приключения, семейный, полнометражный
Режиссер: Крис Бак, Дженнифер Ли
В ролях: Идина Мензел, Кристен Белл, Джонатан Грофф, Джош Гэд, Стерлинг К. Браун, Эван Рэйчел Вуд, Альфред Молина, Марта Плимптон, Джейсон Риттер, Рэйчел Мэттьюз

О фильме: Анна, Эльза, Кристоф, его верный олень Свен и никогда не унывающий снеговик Олаф должны будут покинуть уютное королевство Эренделл и отправиться ещё дальше на север, в путешествие, которое приведет их к истокам древних легенд и поможет раскрыть тайны, касающиеся прошлого их родной страны.

Страна: США
Студия: Walt Disney Animation Studios, Walt Disney Pictures
Продолжительность: 01:43:14
Перевод: Дублированный | iTunes

Качество: BDRemux 1080p
Видео: MPEG-4 AVC, 1920x1080, 21.9 Mbit/s, 23.976 fps
Аудио #01: 48 kHz, AC3, 5.1, 384 Kbps | iTunes | RUS |
Аудио #02: 48 kHz, DTS-HD MA, 7.1, 5229 Kbps | Оригинал |  ENG |
Субтитры: Русские (Full, SDH), английские

Релиз:


[+] MI
General
Unique ID                   : 145722564602115470606315111805311898995 (0x6DA12523920805C5C58CA7634F9DD573)
Complete name               : E:Video111Frozen.II.2019.BDREMUX.1080p.seleZen.mkv
Format                      : Matroska
Format version              : Version 4
File size                   : 19.9 GiB
Duration                    : 1 h 43 min
Overall bit rate mode       : Variable
Overall bit rate            : 27.6 Mb/s
Movie name                  : Frozen.II.2019 from селезень
Encoded date                : UTC 2020-02-16 16:03:30
Writing application         : mkvmerge v40.0.0 ('Old Town Road + Pony') 64-bit
Writing library             : libebml v1.3.9 + libmatroska v1.5.2

Video
ID                          : 1
Format                      : AVC
Format/Info                 : Advanced Video Codec
Format profile              : High@L4.1
Format settings             : CABAC / 4 Ref Frames
Format settings, CABAC      : Yes
Format settings, Reference  : 4 frames
Format settings, GOP        : M=1, N=12
Codec ID                    : V_MPEG4/ISO/AVC
Duration                    : 1 h 43 min
Bit rate mode               : Variable
Bit rate                    : 21.9 Mb/s
Maximum bit rate            : 31.0 Mb/s
Width                       : 1 920 pixels
Height                      : 1 080 pixels
Display aspect ratio        : 16:9
Frame rate mode             : Constant
Frame rate                  : 23.976 (24000/1001) FPS
Color space                 : YUV
Chroma subsampling          : 4:2:0
Bit depth                   : 8 bits
Scan type                   : Progressive
Bits/(Pixel*Frame)          : 0.441
Stream size                 : 15.8 GiB (80%)
Language                    : English
Default                     : Yes
Forced                      : No

Audio #1
ID                          : 2
Format                      : AC-3
Format/Info                 : Audio Coding 3
Commercial name             : Dolby Digital
Codec ID                    : A_AC3
Duration                    : 1 h 43 min
Bit rate mode               : Constant
Bit rate                    : 384 kb/s
Channel(s)                  : 6 channels
Channel layout              : L R C LFE Ls Rs
Sampling rate               : 48.0 kHz
Frame rate                  : 31.250 FPS (1536 SPF)
Compression mode            : Lossy
Stream size                 : 283 MiB (1%)
Title                       : iTunes
Language                    : Russian
Service kind                : Complete Main
Default                     : Yes
Forced                      : Yes

Audio #2
ID                          : 3
Format                      : DTS XLL
Format/Info                 : Digital Theater Systems
Commercial name             : DTS-HD Master Audio
Codec ID                    : A_DTS
Duration                    : 1 h 43 min
Bit rate mode               : Variable
Bit rate                    : 5 229 kb/s
Channel(s)                  : 8 channels
Channel layout              : C L R LFE Lb Rb Lss Rss
Sampling rate               : 48.0 kHz
Frame rate                  : 93.750 FPS (512 SPF)
Bit depth                   : 24 bits
Compression mode            : Lossless
Stream size                 : 3.77 GiB (19%)
Title                       : Original
Language                    : English
Default                     : No
Forced                      : No

Text #1
ID                          : 4
Format                      : UTF-8
Codec ID                    : S_TEXT/UTF8
Codec ID/Info               : UTF-8 Plain Text
Duration                    : 1 h 41 min
Bit rate                    : 72 b/s
Count of elements           : 1312
Stream size                 : 53.9 KiB (0%)
Title                       : Full
Language                    : Russian
Default                     : No
Forced                      : No

Text #2
ID                          : 5
Format                      : UTF-8
Codec ID                    : S_TEXT/UTF8
Codec ID/Info               : UTF-8 Plain Text
Duration                    : 1 h 42 min
Bit rate                    : 95 b/s
Count of elements           : 1810
Stream size                 : 71.6 KiB (0%)
Title                       : SDH
Language                    : Russian
Default                     : No
Forced                      : No

Text #3
ID                          : 6
Format                      : UTF-8
Codec ID                    : S_TEXT/UTF8
Codec ID/Info               : UTF-8 Plain Text
Duration                    : 1 h 41 min
Bit rate                    : 56 b/s
Count of elements           : 1560
Stream size                 : 42.0 KiB (0%)
Title                       : Full
Language                    : English
Default                     : No
Forced                      : No

Text #4
ID                          : 7
Format                      : UTF-8
Codec ID                    : S_TEXT/UTF8
Codec ID/Info               : UTF-8 Plain Text
Duration                    : 1 h 42 min
Bit rate                    : 68 b/s
Count of elements           : 1930
Stream size                 : 51.2 KiB (0%)
Title                       : SDH
Language                    : English
Default                     : No
Forced                      : No

Menu
00:00:00.000                : en:Глава 01
00:05:42.592                : en:Глава 02
00:08:27.716                : en:Глава 03
00:15:01.400                : en:Глава 04
00:16:29.655                : en:Глава 05
00:21:25.117                : en:Глава 06
00:25:45.252                : en:Глава 07
00:29:08.914                : en:Глава 08
00:33:45.023                : en:Глава 09
00:40:27.216                : en:Глава 10
00:44:37.925                : en:Глава 11
00:47:42.318                : en:Глава 12
00:53:04.515                : en:Глава 13
00:55:27.241                : en:Глава 14
01:02:36.711                : en:Глава 15
01:09:57.527                : en:Глава 16
01:13:48.382                : en:Глава 17
01:19:26.637                : en:Глава 18
01:24:28.146                : en:Глава 19
01:31:17.263                : en:Глава 20



[+] eac3to Log
eac3to v3.34
command line: eac3to  "D:Download secondFrozen.II.2019.BluRay.1080p.AVC.DTS-HD.MA7.1-MTeam" 1) -demux -keepdialnorm
------------------------------------------------------------------------------
M2TS, 1 video track, 4 audio tracks, 7 subtitle tracks, 1:43:14, 24p /1.001
1: Chapters, 20 chapters
2: h264/AVC, 1080p24 /1.001 (16:9)
3: DTS Master Audio, English, 7.1 channels, 24 bits, 48kHz, dialnorm: -4dB
  (core: DTS, 5.1 channels, 1509kbps, 48kHz, dialnorm: -4dB)
4: AC3, English, 2.0 channels, 320kbps, 48kHz, dialnorm: -27dB
5: AC3, French, 5.1 channels, 640kbps, 48kHz, dialnorm: -27dB
6: AC3, Spanish, 5.1 channels, 640kbps, 48kHz, dialnorm: -27dB
7: Subtitle (PGS), English
8: Subtitle (PGS), English
9: Subtitle (PGS), French
10: Subtitle (PGS), Spanish
11: Subtitle (PGS), English
12: Subtitle (PGS), French
13: Subtitle (PGS), Spanish
Creating file "00905 - Chapters.txt"...
[s09] Extracting subtitle track number 9...
[s13] Extracting subtitle track number 13...
[a04] Extracting audio track number 4...
[s11] Extracting subtitle track number 11...
[a05] Extracting audio track number 5...
[s12] Extracting subtitle track number 12...
[v02] Extracting video track number 2...
[s08] Extracting subtitle track number 8...
[a06] Extracting audio track number 6...
[s10] Extracting subtitle track number 10...
[a03] Extracting audio track number 3...
[s07] Extracting subtitle track number 7...
[v02] Creating file "00905 - 2 - h264, 1080p24.h264"...
[a03] Creating file "00905 - 3 - DTS Master Audio, English, 7.1 channels, 24 bits, 48kHz.dtsma"...
[a06] Creating file "00905 - 6 - AC3, Spanish, 5.1 channels, 640kbps, 48kHz.ac3"...
[a05] Creating file "00905 - 5 - AC3, French, 5.1 channels, 640kbps, 48kHz.ac3"...
[a04] Creating file "00905 - 4 - AC3, English, 2.0 channels, 320kbps, 48kHz.ac3"...
[s07] Creating file "00905 - 7 - Subtitle (PGS), English.sup"...
[s10] Creating file "00905 - 10 - Subtitle (PGS), Spanish.sup"...
[s09] Creating file "00905 - 9 - Subtitle (PGS), French.sup"...
[s08] Creating file "00905 - 8 - Subtitle (PGS), English.sup"...
[s11] Creating file "00905 - 11 - Subtitle (PGS), English.sup"...
[s12] Creating file "00905 - 12 - Subtitle (PGS), French.sup"...
[s13] Creating file "00905 - 13 - Subtitle (PGS), Spanish.sup"...
[a03] Skipping identical DTS frames (seamless branching)...
[a06] Skipping identical AC3 frames (seamless branching)...
[a05] Skipping identical AC3 frames (seamless branching)...
[a04] Skipping identical AC3 frames (seamless branching)...
Video track 2 contains 148508 frames.
Subtitle track 7 contains 1936 captions.
Subtitle track 8 contains 1311 captions.
Subtitle track 9 contains 1349 captions.
Subtitle track 10 contains 1311 captions.
Subtitle track 11 contains 1847 captions.
Subtitle track 12 contains 1480 captions.
Subtitle track 13 contains 1377 captions.
eac3to processing took 1 minute, 46 seconds.
Done.



Скриншоты:
[+] Всего файлов в раздаче - 1:
Frozen.II.2019.BDREMUX.1080p.seleZen.mkv19.88 GB

Показать еще раздачи по запросу холодное:
2020-04-21 U Холодное лето пятьдесят третьего (1987) HDTVRip 720p от KORSAR 1К3.46 GB ↑ 79 ↓ 10
2020-03-13 U Холодное сердце 2 / Frozen II (2019) BDRip 1080p от Ash61 | 3D-Video | halfOU | iTunes 6.97 GB ↑ 43 ↓ 25
2020-02-21 U Холодное сердце 2 / Frozen II (2019) BDRip-HEVC 1080p от HEVC-CLUB | iTunes 4.70 GB ↑ 131 ↓ 50
2020-02-18 U Холодное сердце 2 / Frozen II (2019) HDRip от Scarabey | iTunes 1.40 GB ↑ 227 ↓ 31
2020-02-14 U Холодное сердце 2 / Frozen II (2019) UHD BDRemux 2160p от селезень | 4K | HDR | iTunes 50.62 GB ↑ 152 ↓ 281
2020-02-14 U Холодное сердце 2 / Frozen II (2019) BDRip-HEVC 2160p | HDR | iTunes 5.08 GB ↑ 64 ↓ 32
2020-02-11 U Холодное сердце 2 / Frozen II (2019) WEB-DLRip | D 1.46 GB ↑ 1379 ↓ 451

Отзывы
Зарегистрируйтесь чтобы добавить комментарий.
Обратная связь
Copyleft ©