↑↓torrent.by
Поиск
Логин: Регистрация
Пароль: Восстановить пароль

Все ради науки / Kagaku na Yatsura [OVA] (2013) BDRip 1080p от Deadmauvlad | AniFilm, AniDUB, Animedia

Скачать vse-radi-nauki-kagaku-na-yatsura-ova-2013-bdrip-1080p-ot-deadmauvlad-anifilm-anidub-animedia.torrent
U Магнитная ссылка Размер: 1.91 GB Раздают: 25 Качают: 14 Добавлен: 2020-02-17 04:34:00
Все ради науки / Kagaku na Yatsura [OVA] (2013) BDRip 1080p от Deadmauvlad | AniFilm, AniDUB, Animedia

Информация о фильме
Название: Все ради науки
Оригинальное название: Kagaku na Yatsura
Страна: Япония
Год выхода: 2013
Жанр: комедия, романтика, этти
Тип: OVA
Режиссер: Канэко Хираку
Автор оригинала: Ёсикава Хидэаки

Описание: "Веселая" история о веселой "повседневности" трех девушек и одного парня - Хизуки Аяны, гениального изобретателя "Доктора Фанкенштейна", Хизуки Токо учёной изобретательницы"забавных" "Колёс", Кузе Айри юной докторше "Гордоне Фримене" любительнице научных и технических прибамбасов и их подопытной кр...... друге детства Комабе Харуки парне который вечно выручает и помогает этим трем горе учёным.

Страна: Япония
Студия: Hoods Entertainment
Цензура: Отсутствует
Возрастное ограничение: 18+ [Запрещено для детей]
Продолжительность:  ~ 00:25:00
Перевод: Любительский (Многоголосый Закадровый) DemonOFmooN & MezIdA & Lali & Mosa [AniFilm]
Перевод: Любительский (Двухголосый Закадровый) Cuba77 & Trina_D [AniDUB]
Перевод: Любительский (Одноголосый Закадровый) ZaRT [Animedia]

Файл
Кодек: AVC
Качество: BDRip 1080p [EnCoDeR by Deadmauvlad ]
Формат видео: MKV / AVC
Видео:  1920x1080 (16:9), 23.976 fps, 9 500 kb/s (0.191 bit/pixel)
Аудио №1: AC3, 48.0 kHz, 2 ch, 192 kb/s, CBR  |  | AniFilm
Аудио №2: AC3, 48.0 kHz, 2 ch, 192 kb/s, CBR  |  | AniDUB
Аудио №3: AC3, 48.0 kHz, 2 ch, 192 kb/s, CBR  |  | Animedia
Аудио №4: FLAC, 48.0 kHz, 2 ch, 1536 kb/s, VBR  |  | Japan (Оригинал)
Субтитры: Русские

Релиз / Автор рипа: Deadmauvlad >_<


[+] MediaInfo
Общее
Уникальный идентификатор                 : 195510448474712193162471294631578718082 (0x9315F155D2A596528B6F468E87B44F82)
Полное имя                               : [Deadmau- RAWS] Kagaku.na.Yatsura.OVA.2013.RUS.JAP.BDRip.1080p.Deadmauvlad.mkv
Формат                                   : Matroska
Версия формата                           : Version 2
Размер файла                             : 1,91 Гбайт
Продолжительность                        : 25 м. 12 с.
Режим общего битрейта                    : Переменный
Общий поток                              : 10,8 Мбит/сек
Название фильма                          : [Deadmau- RAWS] Kagaku.na.Yatsura.OVA.2013.RUS.JAP.BDRip.1080p.Deadmauvlad
Дата кодирования                         : UTC 2020-02-15 15:24:53
Программа кодирования                    : mkvmerge v7.8.0 ('River Man') 32bit built on Apr  3 2015 12:11:22
Библиотека кодирования                   : libebml v1.3.1 + libmatroska v1.4.2

Видео
Идентификатор                            : 1
Формат                                   : AVC
Формат/Информация                        : Advanced Video Codec
Профиль формата                          : High@L4.1
Настройки формата                        : CABAC / 4 Ref Frames
Параметр CABAC формата                   : Да
Параметр RefFrames формата               : 4 кадра
Идентификатор кодека                     : V_MPEG4/ISO/AVC
Продолжительность                        : 25 м. 12 с.
Номинальный битрейт                      : 9500 Кбит/сек
Ширина                                   : 1920 пикселей
Высота                                   : 1080 пикселей
Соотношение сторон                       : 16:9
Режим частоты кадров                     : Постоянный
Частота кадров                           : 23,976 (24000/1001) кадра/сек
Цветовое пространство                    : YUV
Субдискретизация насыщенности            : 4:2:0
Битовая глубина                          : 8 бит
Тип развёртки                            : Прогрессивная
Бит/(Пиксели*Кадры)                      : 0.191
Заголовок                                : Encoder by Deadmauvlad >_<
Библиотека кодирования                   : x264 core 159 r2991 1771b55
Настройки программы                      : cabac=1 / ref=4 / deblock=1:1:1 / analyse=0x3:0x133 / me=esa / subme=10 / psy=1 / psy_rd=1.20:0.75 / mixed_ref=0 / me_range=48 / chroma_me=1 / trellis=2 / 8x8dct=1 / cqm=0 / deadzone=21,11 / fast_pskip=1 / chroma_qp_offset=-4 / threads=18 / lookahead_threads=4 / sliced_threads=0 / nr=0 / decimate=1 / interlaced=0 / bluray_compat=0 / constrained_intra=0 / bframes=12 / b_pyramid=2 / b_adapt=2 / b_bias=0 / direct=1 / weightb=1 / open_gop=0 / weightp=2 / keyint=240 / keyint_min=24 / scenecut=40 / intra_refresh=0 / rc=2pass / mbtree=0 / bitrate=9500 / ratetol=1.0 / qcomp=0.60 / qpmin=10 / qpmax=69 / qpstep=4 / cplxblur=20.0 / qblur=0.5 / ip_ratio=1.40 / pb_ratio=1.35 / aq=1:1.50
Язык                                     : Polish
Default                                  : Нет
Forced                                   : Нет
Цветовой диапазон                        : Limited
Основные цвета                           : BT.709
Характеристики трансфера                 : BT.709
Коэффициенты матрицы                     : BT.709

Аудио #1
Идентификатор                            : 2
Формат                                   : AC-3
Формат/Информация                        : Audio Coding 3
Коммерческое название                    : Dolby Digital
Идентификатор кодека                     : A_AC3
Продолжительность                        : 25 м. 12 с.
Вид битрейта                             : Постоянный
Битрейт                                  : 192 Кбит/сек
Каналы                                   : 2 канала
ChannelLayout                            : L R
Частота                                  : 48,0 КГц
Частота кадров                           : 31,250 кадров/сек (1536 SPF)
Метод сжатия                             : С потерями
Размер потока                            : 34,6 Мбайт (2%)
Заголовок                                : DemonOFmooN & MezIdA & Lali & Mosa [Anililm]
Язык                                     : Russian
Default                                  : Нет
Forced                                   : Нет

Аудио #2
Идентификатор                            : 3
Формат                                   : AC-3
Формат/Информация                        : Audio Coding 3
Коммерческое название                    : Dolby Digital
Идентификатор кодека                     : A_AC3
Продолжительность                        : 25 м. 12 с.
Вид битрейта                             : Постоянный
Битрейт                                  : 192 Кбит/сек
Каналы                                   : 2 канала
ChannelLayout                            : L R
Частота                                  : 48,0 КГц
Частота кадров                           : 31,250 кадров/сек (1536 SPF)
Метод сжатия                             : С потерями
Размер потока                            : 34,6 Мбайт (2%)
Заголовок                                : Cuba77 & Trina_D [AniDub]
Язык                                     : Russian
Default                                  : Нет
Forced                                   : Нет

Аудио #3
Идентификатор                            : 4
Формат                                   : AC-3
Формат/Информация                        : Audio Coding 3
Коммерческое название                    : Dolby Digital
Идентификатор кодека                     : A_AC3
Продолжительность                        : 25 м. 12 с.
Вид битрейта                             : Постоянный
Битрейт                                  : 192 Кбит/сек
Каналы                                   : 2 канала
ChannelLayout                            : L R
Частота                                  : 48,0 КГц
Частота кадров                           : 31,250 кадров/сек (1536 SPF)
Метод сжатия                             : С потерями
Размер потока                            : 34,6 Мбайт (2%)
Заголовок                                : ZaRT [Animedia]
Язык                                     : Russian
Default                                  : Нет
Forced                                   : Нет

Аудио #4
Идентификатор                            : 5
Формат                                   : FLAC
Формат/Информация                        : Free Lossless Audio Codec
Идентификатор кодека                     : A_FLAC
Продолжительность                        : 25 м. 12 с.
Вид битрейта                             : Переменный
Каналы                                   : 2 канала
ChannelLayout                            : L R
Частота                                  : 48,0 КГц
Битовая глубина                          : 16 бит
Метод сжатия                             : Без потерь
Заголовок                                : Original
Библиотека кодирования                   : Lavf58.33.100
Язык                                     : Japanese
Default                                  : Нет
Forced                                   : Нет

Текст #1
Идентификатор                            : 6
Формат                                   : ASS
Идентификатор кодека                     : S_TEXT/ASS
Идентификатор кодека/Информация          : Advanced Sub Station Alpha
Метод сжатия                             : Без потерь
Заголовок                                : RUS SUB [Jenia aka Zub]
Язык                                     : Russian
Default                                  : Нет
Forced                                   : Нет

Текст #2
Идентификатор                            : 7
Формат                                   : ASS
Идентификатор кодека                     : S_TEXT/ASS
Идентификатор кодека/Информация          : Advanced Sub Station Alpha
Метод сжатия                             : Без потерь
Заголовок                                : RUS Sub Version 2
Язык                                     : Russian
Default                                  : Нет
Forced                                   : Нет




Скриншоты:
[+] Всего файлов в раздаче - 1:
[Deadmau- RAWS] Kagaku.na.Yatsura.OVA.2013.RUS.JAP.BDRip.1080p.Deadmauvlad.mkv1.91 GB

Похожие раздачи по запросу - ради:
2020-03-23 U Ради твоего счастья [01-02 из 02] (2019) HDTVRip 720p от ExKinoRay 4.63 GB ↑ 45 ↓ 12
2020-03-22 U Ради твоего счастья [01-02 из 02] (2019) WEBRip-AVC от Files-x 2.25 GB ↑ 72 ↓ 40
2020-03-22 U Ради твоего счастья [01-02 из 02] (2020) WEBRip от Files-x 2.26 GB ↑ 48 ↓ 53
2020-03-21 U Ради твоего счастья [01х01-04 из 04] (2020) HDTVRip-AVC 2.26 GB ↑ 5 ↓ 8
2019-04-11 U Ради денег или любви / The Revenger: An Unromantic Comedy / For Love or Money (2019) WEB-DLRip от OlLanDGroup | HDRezka Studio 1.46 GB ↑ 210 ↓ 19
2017-12-30 U Дыши ради нас / Breathe (2017) BDRip от MegaPeer | iTunes 1.41 GB ↑ 277 ↓ 114

Отзывы
Зарегистрируйтесь чтобы добавить комментарий.
Обратная связь
Copyleft ©