↑↓torrent.by
Поиск
Логин: Регистрация
Пароль: Восстановить пароль

Ржев (2019) WEB-DL 1080p от ELEKTRI4KA | iTunes

Скачать rzhev-2019-web-dl-1080p-ot-elektri4ka-itunes.torrent
U Магнитная ссылка Размер: 4.00 GB Раздают: 1150 Качают: 475 Добавлен: 2020-02-20 06:35:41
Ржев (2019) WEB-DL 1080p от ELEKTRI4KA | iTunes

Название: Ржев
Год выхода: 2019
Жанр: военный, драма, история
Режиссер: Игорь Копылов
В ролях: Сергей Жарков, Иван Батарев, Олег Гаянов, Арсений Семёнов, Александр Горбатов, Александр Бухаров, Григорий Некрасов, Игорь Грабузов, Александр Аравушкин, Дан Розин

О фильме: 1942 год. Ржевская битва. После боев под селом Овсянниково от роты советских солдат осталась только треть. Бойцы пытаются продержаться до прихода подкрепления. Но из штаба поступает приказ удержать деревню любой ценой. Значит, отступать нельзя... Каждый из героев понимает, что живыми из этого переплета выбраться почти невозможно. В этот момент в Овсянниково, едва не погибнув под вражеским обстрелом, прибывает младший лейтенант - начальник особого отдела, который должен найти и разоблачить предателей среди своих. Лейтенант уверен, что только так можно приблизить победу. События приобретают непредсказуемый оборот.

Выпущено: Россия
Студия: Триикс Медиа
Продолжительность: 01:57:20
Озвучивание: Оригинальное | iTunes

Файл
Формат: MKV
Качество: WEB-DL 1080p
Видео: AVC, 4492 Kb/s, 1912x792
Аудио: AC3, 6 ch, 384 Kb/s
Субтитры: Нет
Дополнительно: Сохранены оригинальные чаптеры.

Релиз: &


[+] MediaInfo:
Complete name: Rzhev.2019.WEB-DL.1080p.ELEKTRI4KA.UNIONGANG.mkv
Format: Matroska
Format version: Version 4 / Version 2
File size: 4.00 GiB
Duration: 1 h 57 min
Overall bit rate: 4 878 kb/s
Movie name: ELEKTRI4KA.UNIONGANG
Encoded date: UTC 2020-02-19 19:11:48
Writing application: mkvmerge v8.3.0 ('Over the Horizon') 64bit
Writing library: libebml v1.3.1 + libmatroska v1.4.2

Video
ID: 1
Format: AVC
Format/Info: Advanced Video Codec
Format profile: High@L4
Format settings, CABAC: Yes
Format settings, Reference frames: 5 frames
Codec ID: V_MPEG4/ISO/AVC
Duration: 1 h 57 min
Bit rate: 4 492 kb/s
Width: 1 912 pixels
Height: 792 pixels
Display aspect ratio: 2.40:1
Frame rate mode: Constant
Frame rate: 23.976 (24000/1001) FPS
Color space: YUV
Chroma subsampling: 4:2:0
Bit depth: 8 bits
Scan type: Progressive
Bits/(Pixel*Frame): 0.124
Stream size: 3.68 GiB (92%)
Language: English
Default: Yes
Forced: No
Color range: Limited
Color primaries: BT.709
Transfer characteristics: BT.709
Matrix coefficients: BT.709

Audio
ID: 2
Format: AC-3
Format/Info: Audio Coding 3
Mode extension: CM (complete main)
Format settings, Endianness: Big
Codec ID: A_AC3
Duration: 1 h 57 min
Bit rate mode: Constant
Bit rate: 384 kb/s
Channel(s): 6 channels
Channel positions: Front: L C R, Side: L R, LFE
Sampling rate: 48.0 kHz
Frame rate: 31.250 FPS (1536 spf)
Bit depth: 16 bits
Compression mode: Lossy
Stream size: 322 MiB (8%)
Title: iTunes
Language: Russian
Default: Yes
Forced: No

Menu
00:00:00.000: en:1
00:08:45.000: en:2
00:18:17.000: en:3
00:28:49.000: en:4
00:38:03.000: en:5
00:49:30.000: en:6
00:58:22.000: en:7
01:07:04.000: en:8
01:16:42.000: en:9
01:27:13.000: en:10
01:37:41.000: en:11
01:47:42.000: en:12
01:54:42.000: en:13



[+] Война, какой она была
► "За три года на фронте мне пришлось участвовать во многих боях, но снова и снова мысль и боль воспоминаний возвращают меня к ржевским боям. Страшно вспомнить, сколько там людей полегло! Ржевская битва — это была БОЙНЯ, и Ржев был ЦЕНТРОМ этой бойни. Такого я не видал потом за всю войну."
† "Мой рассказ о боях на Ржевской земле лишь чуть-чуть обнажает подводную часть айсберга ржевской трагедии. Это лишь то, что видел и пережил я сам. Однако мою «окопную» правду подтверждают не только историки и живые свидетели-ветераны, уцелевшие в тех боях, но и книга немецкого генерала Хорста Гроссмана «Ржев — краеугольный камень Восточного фронта» — название говорит само за себя.
► "Наши потери убитыми и ранеными в Ржевской битве приближались к ДВУМ С ПОЛОВИНОЙ МИЛЛИОНАМ ЧЕЛОВЕК. Это превышает суммарные потери наших войск в Сталинградской и Курской битвах, вместе взятых.
Но Ржев так и не был взят."
† "Мы наступали на Ржев по ТРУПНЫМ ПОЛЯМ. В ходе ржевских боев появилось много «долин смерти» и «рощ смерти». Не побывавшему там трудно вообразить, что такое смердящее под летним солнцем месиво, состоящее из покрытых червями десятков тысяч человеческих тел."
"Об ожесточенности боев за Ржев говорит такой факт. Только в одной деревне Полунино (место действия в фильме), которая стоит в четырех километрах севернее Ржева, в братской могиле захоронено ТРИНАДЦАТЬ ТЫСЯЧ советских солдат из СЕМИДЕСЯТИ ТРЕХ дивизий и бригад, воевавших здесь."
→ "Немцы до сих пор скрывают свои потери подо Ржевом, хотя у них они тоже были очень высоки: в батальонах из 300 солдат оставалось до 90, а в некоторых и по 20 человек."  
♦ "Возникает вопрос: откуда это умаление и замалчивание? Ведь на самом-то деле В ИСТОРИИ ВТОРОЙ МИРОВОЙ ВОЙНЫ НЕ БЫЛО БОЛЕЕ ГРАНДИОЗНОГО И БОЛЕЕ МАСШТАБНОГО СРАЖЕНИЯ, ЧЕМ РЖЕВСКАЯ БИТВА — ни по количеству задействованных войск — ОКОЛО ДЕСЯТИ МИЛЛИОНОВ С ОБЕИХ СТОРОН, ни по охватываемой территории — ВОСЕМЬ ОБЛАСТЕЙ, ни по длительности боев — 17 МЕСЯЦЕВ, ни по КОЛИЧЕСТВУ ОПЕРАЦИЙ и изощренности маневров, ни по хитроумности конфигураций обходов, обводов, «котлов» и контрударов, да и по СТРАТЕГИЧЕСКОЙ ЗНАЧИМОСТИ ДЛЯ ОБЕИХ ВОЮЮЩИХ СТОРОН эта битва была КЛЮЧЕВОЙ."
◊ "В результате ликвидации Ржевско-Вяземского выступа была окончательно снята угроза Москве. Но то, что Ржев не был взят нами ни в январе, как приказывал Сталин, ни в августе 1942-го, а был оставлен немцами лишь в марте 1943-го, не делало чести нашему командованию."
▬  "Битва за Ржев — это самая трагическая, самая кровопролитная и самая неудачная из всех битв, проведенных нашей армией."
ℹ  "Война, какой она была" (П.А.Михин, писатель-фронтовик, артиллерист, капитан. Провел на передовой три года и пять дней. Прошел войну от Ржева до Праги).



Скриншоты:
[+] Всего файлов в раздаче - 1:
Rzhev.2019.WEB-DL.1080p.ELEKTRI4KA.UNIONGANG.mkv4.00 GB

Показать еще раздачи по запросу ржев:
2020-07-07 U Ржев (2019) HDRip от Scarabey | Лицензия 1.45 GB ↑ 221 ↓ 9
2020-07-07 U Ржев (2019) HDRip от Portablius | Лицензия 742.94 MB ↑ 23 ↓ 7
2020-07-07 U Ржев (2019) BDRip-AVC | Лицензия 2.18 GB ↑ 33 ↓ 10
2020-07-06 U Ржев (2019) BDRip 1080p от OlLanDGroup | Лицензия 9.31 GB ↑ 62 ↓ 46
2020-07-06 U Ржев (2019) BDRip-AVC | Лицензия 1.46 GB ↑ 54 ↓ 15
2020-07-06 U Ржев (2019) BDRip 720p | Лицензия 4.77 GB ↑ 89 ↓ 47
2020-07-06 U Ржев (2019) BDRip 1080p | Лицензия 10.52 GB ↑ 106 ↓ 66

Отзывы
Зарегистрируйтесь чтобы добавить комментарий.
Обратная связь
Copyleft ©