↑↓torrent.by
Поиск
Логин: Регистрация
Пароль: Восстановить пароль

Ледяная принцесса / Tabaluga / Ice Princess Lily (2018) BDRip 720p от ELEKTRI4KA | iTunes

Скачать ledyanaya-princessa-tabaluga-ice-princess-lily-2018-bdrip-720p-ot-elektri4ka-itunes.torrent
U Магнитная ссылка Размер: 3.57 GB Раздают: 204 Качают: 19 Добавлен: 2020-02-22 14:42:33
Ледяная принцесса / Tabaluga / Ice Princess Lily (2018) BDRip 720p от ELEKTRI4KA | iTunes

Информация
Название: Ледяная принцесса
Оригинальное название: Tabaluga / Ice Princess Lily
Год выхода: 2018
Жанр: Мультфильм, мюзикл, драма, комедия, приключения, семейный
Режиссер: Свен Унтервальдт мл.
В ролях: Кэмерон Анселл, Кристин Фэйрли, Бенедикт Кэмпбелл, Дэн Петрониевич, Элизабет Ханна, Эллен-Рэй Хеннесси, Кевин Дэннис, Ричард Во, Рик Миллер, Zach Bennett

Описание: Там, где круглый год лежат снега, а небо озаряет северное сияние, живет Ледяная принцесса Лилли с голубыми, как древний лед, волосами. Однажды Лилли и её друг, полярный медведь Лимбо, встречают юного дракона, который не умеет извергать пламя. Лилли обещает помочь ему. Но путь, который их ждет, будет не из легких, впереди новых друзей ждет немало приключений и опасных испытаний.

Выпущено: Германия, Канада
Студия: Awesometown Entertainment, Deutsche Columbia Pictures Film Produktion, Tempest Film
Продолжительность: 01:26:36
Озвучивание: Дублированное | iTunes

Файл
Формат: MKV
Качество: BDRip 720p
Видео: AVC, 4010 Kbit/s, 1280x692, 25.000 fps
Аудио 1: Russian: 48 kHz, AC3, 6 ch, 384 Kbps
Аудио 2: German: 48 kHz, DTS, 6 ch, 1509 Kbps
Субтитры: German
Дополнительно: Сохранены оригинальные чаптеры.

Релиз: &


[+] MediaInfo:
Complete name: Ledyanaya.printsessa.2018.720p.BluRay.ELEKTRI4KA.UNIONGANG.mkv
Format: Matroska
Format version: Version 4 / Version 2
File size: 3.57 GiB
Duration: 1 h 26 min
Overall bit rate mode: Variable
Overall bit rate: 5 910 kb/s
Movie name: ELEKTRI4KA.UNIONGANG
Encoded date: UTC 2020-02-21 12:50:41
Writing application: mkvmerge v8.3.0 ('Over the Horizon') 64bit
Writing library: libebml v1.3.1 + libmatroska v1.4.2

Video
ID: 1
Format: AVC
Format/Info: Advanced Video Codec
Format profile: High@L4.1
Format settings, CABAC: Yes
Format settings, Reference frames: 3 frames
Codec ID: V_MPEG4/ISO/AVC
Duration: 1 h 26 min
Bit rate mode: Variable
Bit rate: 4 009 kb/s
Maximum bit rate: 15.0 Mb/s
Width: 1 280 pixels
Height: 696 pixels
Display aspect ratio: 1.85:1
Frame rate mode: Constant
Frame rate: 25.000 FPS
Color space: YUV
Chroma subsampling: 4:2:0
Bit depth: 8 bits
Scan type: Progressive
Bits/(Pixel*Frame): 0.180
Stream size: 2.42 GiB (68%)
Writing library: x264 core 157 r2935 545de2f
Encoding settings: cabac=1 / ref=4 / deblock=1:0:0 / analyse=0x3:0x133 / me=umh / subme=9 / psy=1 / psy_rd=1.00:0.00 / mixed_ref=1 / me_range=24 / chroma_me=1 / trellis=2 / 8x8dct=1 / cqm=0 / deadzone=21,11 / fast_pskip=1 / chroma_qp_offset=-2 / threads=22 / lookahead_threads=1 / sliced_threads=0 / slices=4 / nr=0 / decimate=1 / interlaced=0 / bluray_compat=1 / constrained_intra=0 / bframes=3 / b_pyramid=1 / b_adapt=2 / b_bias=0 / direct=3 / weightb=1 / open_gop=1 / weightp=1 / keyint=24 / keyint_min=1 / scenecut=40 / intra_refresh=0 / rc_lookahead=25 / rc=crf / mbtree=0 / crf=16.5 / qcomp=0.60 / qpmin=0 / qpmax=51 / qpstep=4 / vbv_maxrate=15000 / vbv_bufsize=15000 / crf_max=0.0 / nal_hrd=vbr / filler=0 / ip_ratio=1.40 / pb_ratio=1.30 / aq=0
Language: German
Default: Yes
Forced: No
Color range: Limited
Color primaries: BT.709
Transfer characteristics: BT.709
Matrix coefficients: BT.709

Audio #1
ID: 2
Format: AC-3
Format/Info: Audio Coding 3
Mode extension: CM (complete main)
Format settings, Endianness: Big
Codec ID: A_AC3
Duration: 1 h 26 min
Bit rate mode: Constant
Bit rate: 384 kb/s
Channel(s): 6 channels
Channel positions: Front: L C R, Side: L R, LFE
Sampling rate: 48.0 kHz
Frame rate: 31.250 FPS (1536 spf)
Bit depth: 16 bits
Compression mode: Lossy
Stream size: 238 MiB (6%)
Title: iTunes
Language: Russian
Default: Yes
Forced: No

Audio #2
ID: 3
Format: DTS
Format/Info: Digital Theater Systems
Mode: 16
Format settings, Endianness: Big
Codec ID: A_DTS
Duration: 1 h 26 min
Bit rate mode: Constant
Bit rate: 1 509 kb/s
Channel(s): 6 channels
Channel positions: Front: L C R, Side: L R, LFE
Sampling rate: 48.0 kHz
Frame rate: 93.750 FPS (512 spf)
Bit depth: 24 bits
Compression mode: Lossy
Stream size: 935 MiB (26%)
Language: German
Default: No
Forced: No

Text
ID: 4
Format: VobSub
Muxing mode: zlib
Codec ID: S_VOBSUB
Codec ID/Info: Picture based subtitle format used on DVDs
Duration: 1 h 19 min
Bit rate: 5 834 b/s
Count of elements: 973
Stream size: 3.32 MiB (0%)
Title: German Full
Language: German
Default: No
Forced: No

Menu
00:00:00.000: de:00:00:00.000
00:06:09.080: de:00:06:09.080
00:10:52.920: de:00:10:52.920
00:15:00.400: de:00:15:00.400
00:23:17.240: de:00:23:17.240
00:28:00.440: de:00:28:00.440
00:31:48.440: de:00:31:48.440
00:35:14.920: de:00:35:14.920
00:42:00.440: de:00:42:00.440
00:45:25.400: de:00:45:25.400
00:49:46.720: de:00:49:46.720
00:55:14.400: de:00:55:14.400
00:59:42.360: de:00:59:42.360
01:06:09.280: de:01:06:09.280
01:15:03.800: de:01:15:03.800
01:20:49.280: de:01:20:49.280



Скриншоты:
[+] Всего файлов в раздаче - 1:
Ledyanaya.printsessa.2018.720p.BluRay.ELEKTRI4KA.UNIONGANG.mkv3.57 GB

Похожие раздачи по запросу - ледяная:
2020-02-22 U Ледяная принцесса / Tabaluga / Ice Princess Lily (2018) HDRip от ELEKTRI4KA | iTunes 1.37 GB ↑ 306 ↓ 67

Отзывы
Зарегистрируйтесь чтобы добавить комментарий.
Загрузите программу
  uTorrent.exe
Обратная связь
Copyleft ©