↑↓torrent.by
Поиск
Логин: Регистрация
Пароль: Восстановить пароль

Барашек Шон: Фермагеддон / A Shaun the Sheep Movie: Farmageddon (2019) BDRip 720p

Скачать barashek-shon-fermageddon-a-shaun-the-sheep-movie-farmageddon-2019-bdrip-720p.torrent
U Магнитная ссылка Размер: 4.30 GB Раздают: 669 Качают: 258 Добавлен: 2020-02-25 18:13:54
Барашек Шон: Фермагеддон / A Shaun the Sheep Movie: Farmageddon (2019) BDRip 720p

Информация
Название: Барашек Шон: Фермагеддон
Оригинальное название: A Shaun the Sheep Movie: Farmageddon
Год выхода: 2019
Жанр: Мультфильм, фантастика, фэнтези, комедия, приключения, семейный
Режиссер: Уилл Бечер, Ричард Фелан
Роли озвучивают: Джастин Флетчер, Джон Шпаркс, Крис Морелл, Энди Найман, Дэвид Холт, Кейт Харбор, Амалия Витале, Джо Сагг, Эмма Тейт, Ричард Веббер

Описание:  Странные огни над городом предвещают прибытие таинственного гостя из далекой галактики. Очаровательная и озорная Лу-Ла терпит крушение неподалеку от фермы Шона. Инопланетные способности и проказы неугомонной Лу-Лы очаровывают отару, и Шон решает помочь внеземному другу найти потерянный корабль, но он не знает, что зловещее агентство по охоте на инопланетян уже идет по их следу. Смогут ли Шон и его друзья предотвратить Фермагеддон, пока не стало слишком поздно?

Страна: Великобритания, Франция, США
Студия: Aardman Animations, Amazon Prime Video, Anton, Studio Canal
Продолжительность: 01:26:47
Перевод: не требуется (нет диалогов)

Файл
Формат: MKV
Качество: BDRip 720p
Видео: 1280x536 (2,40:1), 24 fps, MPEG-4 AVC ~ 6449 Кbps avg, 0.302 bit/pixel
Звук: 48 kHz, AC3 Dolby Digital, 3/2 (L,C,R,l,r) + LFE ch, ~640 kbps
Субтитры: Нет


[+] Инфо-файл
Общее
Уникальный идентификатор                 : 6654476889621815055669384068172053889 (0x5019B0A9B5156DCE47CB8385C8F7D81)
Полное имя                               : A.Shaun.the.Sheep.Movie.Farmageddon.2019.720p.BluRay.DD5.1.x264.mkv
Формат                                   : Matroska
Версия формата                           : Version 4
Размер файла                             : 4,30 Гбайт
Продолжительность                        : 1 ч. 26 м.
Общий поток                              : 7087 Кбит/сек
Название фильма                          : Барашек Шон: Фермагеддон / A Shaun the Sheep Movie: Farmageddon (2019)
Дата кодирования                         : UTC 2020-02-24 23:01:10
Программа кодирования                    : mkvmerge v41.0.0 ('Smarra') 64-bit
Библиотека кодирования                   : libebml v1.3.9 + libmatroska v1.5.2

Видео
Идентификатор                            : 1
Формат                                   : AVC
Формат/Информация                        : Advanced Video Codec
Профиль формата                          : High@L4.1
Настройки формата                        : CABAC / 12 Ref Frames
Параметр CABAC формата                   : Да
Параметр RefFrames формата               : 12 кадров
Идентификатор кодека                     : V_MPEG4/ISO/AVC
Продолжительность                        : 1 ч. 26 м.
Битрейт                                  : 6449 Кбит/сек
Ширина                                   : 1280 пикселей
Высота                                   : 536 пикселей
Соотношение сторон                       : 2,40:1
Режим частоты кадров                     : Постоянный
Частота кадров                           : 24,000 кадра/сек
Цветовое пространство                    : YUV
Субдискретизация насыщенности            : 4:2:0
Битовая глубина                          : 8 бит
Тип развёртки                            : Прогрессивная
Бит/(Пиксели*Кадры)                      : 0.392
Размер потока                            : 3,91 Гбайт (91%)
Заголовок                                : BdC
Библиотека кодирования                   : x264 core 157 r2969 d4099dd
Настройки программы                      : cabac=1 / ref=12 / deblock=1:-3:-3 / analyse=0x3:0x133 / me=umh / subme=10 / psy=1 / psy_rd=1.00:0.00 / mixed_ref=1 / me_range=32 / chroma_me=1 / trellis=2 / 8x8dct=1 / cqm=0 / deadzone=21,11 / fast_pskip=0 / chroma_qp_offset=-2 / threads=8 / lookahead_threads=1 / sliced_threads=0 / nr=0 / decimate=0 / interlaced=0 / bluray_compat=0 / constrained_intra=0 / bframes=8 / b_pyramid=2 / b_adapt=2 / b_bias=0 / direct=3 / weightb=1 / open_gop=0 / weightp=2 / keyint=240 / keyint_min=24 / scenecut=40 / intra_refresh=0 / rc_lookahead=60 / rc=2pass / mbtree=0 / bitrate=6449 / ratetol=1.0 / qcomp=0.60 / qpmin=0 / qpmax=69 / qpstep=4 / cplxblur=20.0 / qblur=0.5 / vbv_maxrate=62500 / vbv_bufsize=78125 / nal_hrd=none / filler=0 / ip_ratio=1.30 / pb_ratio=1.20 / aq=3:0.80
Default                                  : Да
Forced                                   : Нет
Цветовой диапазон                        : Limited
Основные цвета                           : BT.709
Характеристики трансфера                 : BT.709
Коэффициенты матрицы                     : BT.709

Аудио
Идентификатор                            : 2
Формат                                   : AC-3
Формат/Информация                        : Audio Coding 3
Коммерческое название                    : Dolby Digital
Идентификатор кодека                     : A_AC3
Продолжительность                        : 1 ч. 26 м.
Вид битрейта                             : Постоянный
Битрейт                                  : 640 Кбит/сек
Каналы                                   : 6 каналов
ChannelLayout                            : L R C LFE Ls Rs
Частота                                  : 48,0 КГц
Частота кадров                           : 31,250 кадров/сек (1536 SPF)
Метод сжатия                             : С потерями
Размер потока                            : 397 Мбайт (9%)
Язык                                     : Amharic
Default                                  : Да
Forced                                   : Нет

Меню
00:00:00.000                             : en:00:00:00.000
00:06:22.208                             : en:00:06:22.208
00:10:49.375                             : en:00:10:49.375
00:17:31.500                             : en:00:17:31.500
00:22:46.125                             : en:00:22:46.125
00:32:52.000                             : en:00:32:52.000
00:38:18.833                             : en:00:38:18.833
00:44:27.667                             : en:00:44:27.667
00:54:43.917                             : en:00:54:43.917
01:00:59.208                             : en:01:00:59.208
01:05:47.750                             : en:01:05:47.750
01:12:25.042                             : en:01:12:25.042



Скриншоты:
[+] Всего файлов в раздаче - 1:
A.Shaun.the.Sheep.Movie.Farmageddon.2019.720p.BluRay.DD5.1.x264.mkv4.30 GB

Похожие раздачи по запросу - барашек:
2020-02-27 U Барашек Шон: Фермагеддон / A Shaun the Sheep Movie: Farmageddon (2019) BDRip от Twister & ExKinoRay 1.46 GB ↑ 66 ↓ 26
2020-02-25 U Барашек Шон: Фермагеддон / A Shaun the Sheep Movie: Farmageddon (2019) BDRip от MegaPeer 1.46 GB ↑ 656 ↓ 285
2020-02-25 U Барашек Шон: Фермагеддон / A Shaun the Sheep Movie: Farmageddon (2019) BDRip 1080p 8.58 GB ↑ 205 ↓ 68

Отзывы
Зарегистрируйтесь чтобы добавить комментарий.
Обратная связь
Copyleft ©