↑↓torrent.by
Поиск
Логин: Регистрация
Пароль: Восстановить пароль

(НЕ)идеальный мужчина (2020) WEB-DLRip-AVC | iTunes

Скачать ne-idealnyy-muzhchina-2020-web-dlrip-avc-itunes.torrent
U Магнитная ссылка Размер: 1.46 GB Раздают: 189 Качают: 57 Добавлен: 2020-03-02 13:51:04
(НЕ)идеальный мужчина (2020) WEB-DLRip-AVC | iTunes

Название: (НЕ)идеальный мужчина
Год выхода: 2020
Жанр: Комедия, фантастика, мелодрама
Режиссер: Марюс Вайсберг
В ролях: Юлия Александрова, Егор Крид, Роман Курцын, Максим Лагашкин, Артем Сучков, Яна Кошкина, Алика Смехова, Дэниел Барнс, Ирина Гринёва, Владимир Андриянов

О фильме:
Свете не везет с отношениями: она вечно подстраивается под парней, унижается и терпит измены. После расставания с очередным непутевым бойфрендом девушка идет работать в компанию по продаже роботов. Те уже стали частью обычной жизни, их не отличить от людей, но не в пример своим создателям роботы чутко реагируют на характер человека, его потребности, привычки и слабости. Когда у одного из роботов обнаруживается программный сбой и его хотят вернуть производителю, Света упрашивает продать его ей, так как… влюбляется в него, приняв технический дефект за проявление личности. Более того, Света хочет связать свою жизнь с чутким, внимательным и заботливым роботом, и это приводит к самым неожиданным последствиям…

Страна: Россия
Студия: ГПМ КИТ, Нон-стоп Продакшн
Продолжительность: 01:28:00
Перевод: Не требуется

Файл
Качество: WEB-DLRip-AVC
Формат: MKV
Кодек: MPEG-4 AVC
Видео: 1024x430 (2,40:1), 25 fps, MPEG-4 AVC, 1988 Кbps avg, 0.181 bit/pixel
Аудио: AC3, 48 kHz, 6 ch, ~384.00 kbps avg | русский | iTunes

Субтитры: Отсутствуют


[+] Инфо-файл
Общее
Уникальный идентификатор                 : 229317128718643249485486788975909303833 (0xAC84DF5BE614D1429A63F15052BA7619)
Полное имя                               : NEidealnyiy.muzhchina.2020.WEB-DLRip.x264.mkv
Формат                                   : Matroska
Версия формата                           : Version 4
Размер файла                             : 1,46 Гбайт
Продолжительность                        : 1 ч. 28 м.
Общий поток                              : 2372 Кбит/сек
Название фильма                          : (НЕ)идеальный мужчина (2020)
Дата кодирования                         : UTC 2020-03-02 08:09:12
Программа кодирования                    : mkvmerge v41.0.0 ('Smarra') 64-bit
Библиотека кодирования                   : libebml v1.3.9 + libmatroska v1.5.2

Видео
Идентификатор                            : 1
Формат                                   : AVC
Формат/Информация                        : Advanced Video Codec
Профиль формата                          : High@L4.1
Настройки формата                        : CABAC / 9 Ref Frames
Параметр CABAC формата                   : Да
Параметр RefFrames формата               : 9 кадров
Идентификатор кодека                     : V_MPEG4/ISO/AVC
Продолжительность                        : 1 ч. 27 м.
Битрейт                                  : 1988 Кбит/сек
Ширина                                   : 1024 пикселя
Высота                                   : 430 пикселей
Соотношение сторон                       : 2,40:1
Режим частоты кадров                     : Постоянный
Частота кадров                           : 25,000 кадров/сек
Цветовое пространство                    : YUV
Субдискретизация насыщенности            : 4:2:0
Битовая глубина                          : 8 бит
Тип развёртки                            : Прогрессивная
Бит/(Пиксели*Кадры)                      : 0.181
Размер потока                            : 1,22 Гбайт (84%)
Заголовок                                : #stillet
Библиотека кодирования                   : x264 core 152 r2851bm ba24899
Настройки программы                      : cabac=1 / ref=9 / deblock=1:-3:-3 / analyse=0x3:0x113 / me=umh / subme=11 / psy=1 / psy_rd=1.00:0.15 / mixed_ref=1 / me_range=32 / chroma_me=1 / trellis=2 / 8x8dct=1 / cqm=0 / deadzone=21,11 / fast_pskip=0 / chroma_qp_offset=-3 / threads=8 / lookahead_threads=3 / sliced_threads=0 / nr=0 / decimate=0 / interlaced=0 / bluray_compat=0 / constrained_intra=0 / bframes=12 / b_pyramid=2 / b_adapt=2 / b_bias=0 / direct=3 / weightb=1 / open_gop=0 / weightp=2 / keyint=240 / keyint_min=24 / scenecut=40 / intra_refresh=0 / rc=2pass / mbtree=0 / bitrate=1988 / ratetol=1.0 / qcomp=0.60 / qpmin=0 / qpmax=69 / qpstep=4 / cplxblur=20.0 / qblur=0.5 / ip_ratio=1.40 / pb_ratio=1.30 / aq=1:1.00
Язык                                     : Russian
Default                                  : Да
Forced                                   : Нет

Аудио
Идентификатор                            : 2
Формат                                   : AC-3
Формат/Информация                        : Audio Coding 3
Коммерческое название                    : Dolby Digital
Идентификатор кодека                     : A_AC3
Продолжительность                        : 1 ч. 28 м.
Вид битрейта                             : Постоянный
Битрейт                                  : 384 Кбит/сек
Каналы                                   : 6 каналов
ChannelLayout                            : L R C LFE Ls Rs
Частота                                  : 48,0 КГц
Частота кадров                           : 31,250 кадров/сек (1536 SPF)
Метод сжатия                             : С потерями
Размер потока                            : 242 Мбайт (16%)
Заголовок                                : iTunes
Язык                                     : Russian
Default                                  : Да
Forced                                   : Нет

Меню
00:00:00.000                             : en:Глава 1
00:06:53.280                             : en:Глава 2
00:14:47.040                             : en:Глава 3
00:20:15.040                             : en:Глава 4
00:26:21.159                             : en:Глава 5
00:33:22.559                             : en:Глава 6
00:39:21.999                             : en:Глава 7
00:46:59.558                             : en:Глава 8
00:54:24.117                             : en:Глава 9
00:58:59.477                             : en:Глава 10
01:06:41.877                             : en:Глава 11
01:11:57.757                             : en:Глава 12
01:19:45.796                             : en:Глава 13




Скриншоты:
[+] Всего файлов в раздаче - 1:
NEidealnyiy.muzhchina.2020.WEB-DLRip.x264.mkv1.46 GB

Показать еще раздачи по запросу идеальный:
2020-05-17 U Идеальный пациент [01-02 из 02] (2019) SATRip 2.38 GB ↑ 131 ↓ 79
2020-03-02 U (НЕ)идеальный мужчина (2020) WEB-DL 720p | iTunes 2.72 GB ↑ 125 ↓ 41
2020-03-02 U (НЕ)идеальный мужчина (2020) WEB-DLRip | iTunes 740.14 MB ↑ 342 ↓ 70
2020-03-02 U (НЕ)идеальный мужчина (2020) WEB-DLRip | iTunes 1.46 GB ↑ 465 ↓ 165
2020-03-02 U (НЕ)идеальный мужчина (2020) WEB-DL 1080p | iTunes 3.11 GB ↑ 898 ↓ 315
2020-02-16 U Идеальный пациент / Quick / The Perfect Patient (2019) BDRip 1080p от селезень | iTunes 11.36 GB ↑ 205 ↓ 60
2020-01-28 U Идеальный пациент / The Perfect Patient (2019) WEB-DLRip-AVC от ExKinoRay | iTunes 1.98 GB ↑ 274 ↓ 48

Отзывы
Зарегистрируйтесь чтобы добавить комментарий.
Обратная связь
Copyleft ©