↑↓torrent.by
Поиск
Логин: Регистрация
Пароль: Восстановить пароль

Марафон желаний (2020) WEB-DL 1080p | iTunes

Скачать marafon-zhelaniy-2020-web-dl-1080p-itunes.torrent
U Магнитная ссылка Размер: 3.14 GB Раздают: 426 Качают: 294 Добавлен: 2020-03-05 07:58:27
Марафон желаний (2020) WEB-DL 1080p | iTunes

Название: Марафон желаний
Год выпуска: 2020
Жанр:  Комедия, мелодрама
Режиссер: Даша Чаруша
В ролях: Аглая Тарасова, Кирилл Нагиев, Мария Миногарова, Александр Гудков, Яна Троянова, Павел Деревянко, Юлия Ауг, Екатерина Варнава, Макар Запорожский, Олег Курсачёв

О фильме: «Я хочу нижнее белье из одного комплекта. Я хочу в Париж. Я хочу увидеть мир. Я хочу замуж за любимого. Я хочу новые духи. Я хочу отдать кредит за окна! Я хочу найти паспорт до свадьбы»… У Марины есть 7 желаний. Но главное — стать счастливой. Однако пересадка в Пулково и неожиданная встреча вносят свои коррективы в ее планы.

Страна: Россия
Студия: Кинокомпания «САГа»
Продолжительность: 01:29:48
Перевод: Не требуется | iTunes

Файл
Качество: WEB-DL 1080p
Контейнер: MKV
Видео: MPEG-4 AVC, 1920x804, 4616 Kbps, 25.000 fps
Аудио: Russian: AC3, 48.0 KHz, 6 ch, 16 bits, 384 kbps
Субтитры: Нет

Релиз:


[+] MediaInfo
General
Unique ID                                : 298610509781226554233659254929918976141 (0xE0A64AD0DF56D7D93605C161F482E08D)
Complete name                            : MARAFON_ZHELANIJ_2020_WEB-DL_1080p-BLUEBIRD.mkv
Format                                   : Matroska
Format version                           : Version 4 / Version 2
File size                                : 3.14 GiB
Duration                                 : 1 h 29 min
Overall bit rate                         : 5 004 kb/s
Encoded date                             : UTC 2020-03-04 20:38:59
Writing application                      : mkvmerge v43.0.0 ('The Quartermaster') 64-bit
Writing library                          : libebml v1.3.10 + libmatroska v1.5.2
Cover                                    : Yes
Attachments                              : cover5.png

Video
ID                                       : 1
Format                                   : AVC
Format/Info                              : Advanced Video Codec
Format profile                           : High@L4
Format settings, CABAC                   : Yes
Format settings, RefFrames               : 5 frames
Codec ID                                 : V_MPEG4/ISO/AVC
Duration                                 : 1 h 29 min
Bit rate                                 : 4 616 kb/s
Width                                    : 1 920 pixels
Height                                   : 804 pixels
Display aspect ratio                     : 2.40:1
Frame rate mode                          : Constant
Frame rate                               : 25.000 FPS
Color space                              : YUV
Chroma subsampling                       : 4:2:0
Bit depth                                : 8 bits
Scan type                                : Progressive
Bits/(Pixel*Frame)                       : 0.120
Stream size                              : 2.90 GiB (92%)
Language                                 : English
Default                                  : Yes
Forced                                   : No
Color range                              : Limited
Color primaries                          : BT.709
Transfer characteristics                 : BT.709
Matrix coefficients                      : BT.709

Audio
ID                                       : 2
Format                                   : AC-3
Format/Info                              : Audio Coding 3
Format settings, Endianness              : Big
Codec ID                                 : A_AC3
Duration                                 : 1 h 29 min
Bit rate mode                            : Constant
Bit rate                                 : 384 kb/s
Channel(s)                               : 6 channels
Channel positions                        : Front: L C R, Side: L R, LFE
Sampling rate                            : 48.0 kHz
Frame rate                               : 31.250 FPS (1536 SPF)
Bit depth                                : 16 bits
Compression mode                         : Lossy
Delay relative to video                  : -40 ms
Stream size                              : 247 MiB (8%)
Title                                    : [ORIGINAL] DD 5.1 @ 384 kbps (iTunes)
Language                                 : Russian
Service kind                             : Complete Main
Default                                  : Yes
Forced                                   : No

Menu
00:00:00.000                             : en:Глава 1
00:08:04.440                             : en:Глава 2
00:16:18.160                             : en:Глава 3
00:24:37.600                             : en:Глава 4
00:32:52.760                             : en:Глава 5
00:41:14.080                             : en:Глава 6
00:49:22.480                             : en:Глава 7
00:56:31.280                             : en:Глава 8
01:04:40.640                             : en:Глава 9
01:13:15.640                             : en:Глава 10
01:21:25.640                             : en:Глава 11



Скриншоты:
[+] Всего файлов в раздаче - 1:
MARAFON_ZHELANIJ_2020_WEB-DL_1080p-BLUEBIRD.mkv3.14 GB

Показать еще раздачи по запросу марафон:
2020-04-27 U Самурайский марафон / Samurai marason / Samurai marathon (2019) BDRip 1080p | L1 7.54 GB ↑ 50 ↓ 23
2020-04-21 U Самурайский марафон / Samurai marason / Samurai marathon (2019) HDRip | L1 1.45 GB ↑ 359 ↓ 88
2020-03-08 U Марафон желаний (2020) WEB-DLRip от Scarabey | iTunes 1.44 GB ↑ 179 ↓ 29
2020-03-07 U Марафон желаний (2020) WEB-DLRip 720p от ExKinoRay | iTunes 2.31 GB ↑ 181 ↓ 73
2020-03-06 U Марафон желаний (2020) WEB-DLRip-AVC от ExKinoRay | iTunes 1.79 GB ↑ 72 ↓ 38
2020-03-05 U Марафон желаний (2020) WEB-DLRip | iTunes 743.53 MB ↑ 90 ↓ 683
2020-02-12 U Мария Батхан - Марафон по Временам (Grammar) [Видеокурс] (2019) WEBRip 720p | MP4 2.57 GB ↑ 90 ↓ 17

Отзывы
Зарегистрируйтесь чтобы добавить комментарий.
Обратная связь
Copyleft ©