↑↓torrent.by
Поиск
Логин: Регистрация
Пароль: Восстановить пароль

Марафон желаний (2020) WEB-DLRip | iTunes

Скачать marafon-zhelaniy-2020-web-dlrip-itunes.torrent
U Магнитная ссылка Размер: 743.53 MB Раздают: 90 Качают: 683 Добавлен: 2020-03-05 12:34:33
Марафон желаний (2020) WEB-DLRip | iTunes

Название: Марафон желаний
Год выхода: 2020
Жанр: комедия, мелодрама
Режиссер: Даша Чаруша
В ролях: Аглая Тарасова, Кирилл Нагиев, Мария Миногарова, Александр Гудков, Яна Троянова, Павел Деревянко, Юлия Ауг, Екатерина Варнава, Макар Запорожский, Олег Курсачёв

О фильме: "Я хочу нижнее белье из одного комплекта. Я хочу в Париж. Я хочу увидеть мир. Я хочу замуж за любимого. Я хочу новые духи. Я хочу отдать кредит за окна! Я хочу найти паспорт до свадьбы"... У Марины есть 7 желаний. Но главное - стать счастливой. Однако пересадка в Пулково и неожиданная встреча вносят свои коррективы в ее планы.

Выпущено: Россия
Студия: Кинокомпания «САГа»
Продолжительность: 01:29:49
Озвучивание: Оригинал | iTunes

Файл
Формат: AVI
Качество: WEB-DLRip
Видео: 688x288 (2.39:1), 25 fps, XviD build 73 ~1019 kbps avg, 0.21 bit/pixel
Аудио: 48 kHz, MPEG Layer 3, 2 ch, ~128.00 kbps avg
Субтитры: Нет


[+] MediaInfo:
Общее
Полное имя : C:Marafon.zhelaniy.2020.WEB-DLRip.740.mb.avi
Формат : AVI
Формат/Информация : Audio Video Interleave
Размер файла : 744 Мбайт
Продолжительность : 1 ч. 29 м.
Общий поток : 1157 Кбит/сек
Программа кодирования : VirtualDubMod 1.5.10.3 | (build 2550/release)
Библиотека кодирования : VirtualDubMod build 2550/release

Видео
Идентификатор : 0
Формат : MPEG-4 Visual
Профиль формата : Advanced Simple@L5
Параметр BVOP формата : 1
Параметр QPel формата : Нет
Параметр GMC формата : Без точки перехода
Параметр матрицы формата : Выборочная
Идентификатор кодека : XVID
Идентификатор кодека/Подсказка : XviD
Продолжительность : 1 ч. 29 м.
Битрейт : 1020 Кбит/сек
Ширина : 688 пикселей
Высота : 288 пикселей
Соотношение сторон : 2,40:1
Частота кадров : 25,000 кадров/сек
Цветовое пространство : YUV
Субдискретизация насыщенности : 4:2:0
Битовая глубина : 8 бит
Тип развёртки : Прогрессивная
Метод сжатия : С потерями
Бит/(Пиксели*Кадры) : 0.206
Размер потока : 655 Мбайт (88%)
Библиотека кодирования : XviD 73

Аудио
Идентификатор : 1
Формат : MPEG Audio
Версия формата : Version 1
Профиль формата : Layer 3
Идентификатор кодека : 55
Идентификатор кодека/Подсказка : MP3
Продолжительность : 1 ч. 29 м.
Вид битрейта : Постоянный
Битрейт : 128 Кбит/сек
Каналы : 2 канала
Частота : 48,0 КГц
Метод сжатия : С потерями
Размер потока : 82,2 Мбайт (11%)
Выравнивание : Соединение по промежуткам
Продолжительность промежутка : 40 мс. (1,00 видеокадр)
Время предзагрузки промежутка : 504 мс.
Библиотека кодирования : LAME3.99r
Настройки программы : -m s -V 4 -q 2 -lowpass 17 -b 128




Скриншоты:
[+] Всего файлов в раздаче - 1:
Marafon.zhelaniy.2020.WEB-DLRip.740.mb.avi743.53 MB

Показать еще раздачи по запросу марафон:
2020-04-27 U Самурайский марафон / Samurai marason / Samurai marathon (2019) BDRip 1080p | L1 7.54 GB ↑ 50 ↓ 23
2020-04-21 U Самурайский марафон / Samurai marason / Samurai marathon (2019) HDRip | L1 1.45 GB ↑ 357 ↓ 88
2020-03-08 U Марафон желаний (2020) WEB-DLRip от Scarabey | iTunes 1.44 GB ↑ 177 ↓ 29
2020-03-07 U Марафон желаний (2020) WEB-DLRip 720p от ExKinoRay | iTunes 2.31 GB ↑ 181 ↓ 73
2020-03-06 U Марафон желаний (2020) WEB-DLRip-AVC от ExKinoRay | iTunes 1.79 GB ↑ 72 ↓ 38
2020-03-05 U Марафон желаний (2020) WEB-DL 1080p | iTunes 3.14 GB ↑ 426 ↓ 294
2020-02-12 U Мария Батхан - Марафон по Временам (Grammar) [Видеокурс] (2019) WEBRip 720p | MP4 2.57 GB ↑ 89 ↓ 17

Отзывы
Зарегистрируйтесь чтобы добавить комментарий.
Обратная связь
Copyleft ©