↑↓torrent.by
Поиск
Логин: Регистрация
Пароль: Восстановить пароль

Союз Спасения (2019) WEB-DL 1080p | iTunes

Скачать soyuz-spaseniya-2019-web-dl-1080p-itunes.torrent
U Магнитная ссылка Размер: 4.54 GB Раздают: 227 Качают: 92 Добавлен: 2020-03-07 06:40:31
Союз Спасения (2019) WEB-DL 1080p | iTunes

Название: Союз Спасения
Год выхода: 2019
Жанр:  История, биография, драма
Режиссер: Андрей Кравчук
В ролях: Леонид Бичевин, Максим Матвеев, Павел Прилучный, Иван Янковский, Антон Шагин, Александр Домогаров, Игорь Петренко, Сергей Перегудов, Виталий Кищенко, Иван Колесников

О фильме: Наши войска заняли Париж. Россия стала первой державой мира. Теперь всё кажется возможным. Молодые победители, гвардейские офицеры, уверены, что равенство и свобода наступят — здесь и сейчас. Ради этого они готовы принести в жертву всё — положение, богатство, любовь, жизнь… и саму страну.

Страна: Россия
Студия: Дирекция Кино
Продолжительность: 02:10:38
Перевод: Не требуется | iTunes

Файл
Качество: WEB-DL 1080p
Контейнер: MKV
Видео: MPEG-4 AVC, 1916x800, 4591 Kbps, 25.000 fps
Аудио: Russian: AC3, 48.0 KHz, 6 ch, 16 bits, 384 kbps
Субтитры: Русские (hardsub - на французскую речь)

Релиз:


[+] MediaInfo
General
Unique ID                                : 268956550375044783049251926222896567254 (0xCA5725BCB422C9F315C533949ADF13D6)
Complete name                            : SOJUZ_SPASENIJA_2019_WEB-DL_1080p-BLUEBIRD.mkv
Format                                   : Matroska
Format version                           : Version 4 / Version 2
File size                                : 4.54 GiB
Duration                                 : 2 h 10 min
Overall bit rate                         : 4 978 kb/s
Encoded date                             : UTC 2020-03-05 19:13:57
Writing application                      : mkvmerge v43.0.0 ('The Quartermaster') 64-bit
Writing library                          : libebml v1.3.10 + libmatroska v1.5.2
Cover                                    : Yes
Attachments                              : cover.png

Video
ID                                       : 1
Format                                   : AVC
Format/Info                              : Advanced Video Codec
Format profile                           : High@L4
Format settings, CABAC                   : Yes
Format settings, RefFrames               : 5 frames
Codec ID                                 : V_MPEG4/ISO/AVC
Duration                                 : 2 h 10 min
Bit rate                                 : 4 591 kb/s
Width                                    : 1 916 pixels
Height                                   : 800 pixels
Display aspect ratio                     : 2.40:1
Frame rate mode                          : Constant
Frame rate                               : 25.000 FPS
Color space                              : YUV
Chroma subsampling                       : 4:2:0
Bit depth                                : 8 bits
Scan type                                : Progressive
Bits/(Pixel*Frame)                       : 0.120
Stream size                              : 4.19 GiB (92%)
Language                                 : English
Default                                  : Yes
Forced                                   : No
Color range                              : Limited
Color primaries                          : BT.709
Transfer characteristics                 : BT.709
Matrix coefficients                      : BT.709

Audio
ID                                       : 2
Format                                   : AC-3
Format/Info                              : Audio Coding 3
Format settings, Endianness              : Big
Codec ID                                 : A_AC3
Duration                                 : 2 h 10 min
Bit rate mode                            : Constant
Bit rate                                 : 384 kb/s
Channel(s)                               : 6 channels
Channel positions                        : Front: L C R, Side: L R, LFE
Sampling rate                            : 48.0 kHz
Frame rate                               : 31.250 FPS (1536 SPF)
Bit depth                                : 16 bits
Compression mode                         : Lossy
Delay relative to video                  : -40 ms
Stream size                              : 359 MiB (8%)
Title                                    : [ORIGINAL] DD 5.1 @ 384 kbps (iTunes)
Language                                 : Russian
Service kind                             : Complete Main
Default                                  : Yes
Forced                                   : No

Menu
00:00:00.000                             : en:глава 1
00:08:42.856                             : en:глава 2
00:17:06.568                             : en:глава 3
00:24:59.999                             : en:глава 4
00:33:55.200                             : en:глава 5
00:41:55.638                             : en:глава 6
00:52:53.837                             : en:глава 7
01:01:26.015                             : en:глава 8
01:11:41.296                             : en:глава 9
01:22:29.694                             : en:глава 10
01:30:37.765                             : en:глава 11
01:38:39.621                             : en:глава 12
01:47:04.876                             : en:глава 13
01:55:58.409                             : en:глава 14
02:01:54.681                             : en:глава 15



Скриншоты:
[+] Всего файлов в раздаче - 1:
SOJUZ_SPASENIJA_2019_WEB-DL_1080p-BLUEBIRD.mkv4.54 GB

Показать еще раздачи по запросу союз:
2020-05-20 U Красная плесень - Союз параллельных проектов 60 (2020) MP3 102.81 MB ↑ 45 ↓ 17
2020-03-09 U Союз Спасения (2019) WEB-DLRip от Scarabey 1.45 GB ↑ 72 ↓ 21
2020-03-08 U Союз Спасения (2019) WEB-DLRip от MegaPeer | iTunes 1.46 GB ↑ 86 ↓ 26
2020-02-24 U Союз Спасения (2019) WEBRip от Portablius 799.49 MB ↑ 85 ↓ 16
2020-02-23 U Союз спасения (2019) WEBRip-AVC от Files-x 2.04 GB ↑ 115 ↓ 33
2020-02-23 U Союз Спасения (2019) WEBRip 1080p 4.43 GB ↑ 618 ↓ 247
2020-02-15 U Союз Спасения (2019) WEB-DLRip от Dalemake 1.46 GB ↑ 941 ↓ 257

Отзывы
Зарегистрируйтесь чтобы добавить комментарий.
Обратная связь
Copyleft ©