↑↓torrent.by
Поиск
Логин: Регистрация
Пароль: Восстановить пароль

Марафон желаний (2020) WEB-DLRip 720p от ExKinoRay | iTunes

Скачать marafon-zhelaniy-2020-web-dlrip-720p-ot-exkinoray-itunes.torrent
U Магнитная ссылка Размер: 2.31 GB Раздают: 181 Качают: 73 Добавлен: 2020-03-07 15:37:17
Марафон желаний (2020) WEB-DLRip 720p от ExKinoRay | iTunes

Название: Марафон желаний
Год выхода: 2020
Жанр: комедия, мелодрама
Режиссер: Даша Чаруша
В ролях: Аглая Тарасова, Кирилл Нагиев, Мария Миногарова, Александр Гудков, Яна Троянова, Павел Деревянко, Юлия Ауг, Екатерина Варнава, Макар Запорожский, Олег Курсачёв

О фильме:  "Я хочу нижнее белье из одного комплекта. Я хочу в Париж. Я хочу увидеть мир. Я хочу замуж за любимого. Я хочу новые духи. Я хочу отдать кредит за окна! Я хочу найти паспорт до свадьбы"... У Марины есть 7 желаний. Но главное - стать счастливой. Однако пересадка в Пулково и неожиданная встреча вносят свои коррективы в ее планы.

Выпущено: Россия
Студия: Кинокомпания «САГа»
Продолжительность: 01:29:48
Озвучивание: Оригинал | iTunes

За пофиксенный звук спасибо V-ad


Формат: MKV
Качество: WEB-DLRip 720p
Видео: MPEG-4 AVC, 1280x536 (2.40:1), 23.976 fps, 3223 Kbps, 0.172 bit/pixel
Аудио : 48 kHz, AC3, 5.1, 384 Kbps | iTunes | RUS |

Релиз:

Автор релиза:


[+] ОтчетМедиаИнфо

General
Unique ID                                : 241416858330801280731175689072759624738 (0xB59F3216600BB4A7A4CE8324AF4D5422)
Complete name                            : F:Marafon.zelanij.2020.WEB-DL.720p.ExKinoRay.mkv
Format                                   : Matroska
Format version                           : Version 2
File size                                : 2.31 GiB
Duration                                 : 1 h 29 min
Overall bit rate                         : 3 680 kb/s
Movie name                               : MARAFON ZHELANIJ 2020 from ExKinoRay
Encoded date                             : UTC 2020-03-06 04:21:45
Writing application                      : mkvmerge v5.6.0 ('Kenya Kane') built on May 27 2012 16:44:04
Writing library                          : libebml v1.2.3 + libmatroska v1.3.0

Video
ID                                       : 1
Format                                   : AVC
Format/Info                              : Advanced Video Codec
Format profile                           : High@L4.1
Format settings, CABAC                   : Yes
Format settings, ReFrames                : 12 frames
Codec ID                                 : V_MPEG4/ISO/AVC
Duration                                 : 1 h 29 min
Bit rate                                 : 3 223 kb/s
Width                                    : 1 280 pixels
Height                                   : 536 pixels
Display aspect ratio                     : 2.40:1
Frame rate mode                          : Constant
Frame rate                               : 25.000 FPS
Color space                              : YUV
Chroma subsampling                       : 4:2:0
Bit depth                                : 8 bits
Scan type                                : Progressive
Bits/(Pixel*Frame)                       : 0.188
Stream size                              : 2.02 GiB (88%)
Title                                    : Enigma
Writing library                          : x264 core 152 r2851 ba24899
Encoding settings                        : cabac=1 / ref=12 / deblock=1:-2:-2 / analyse=0x3:0x113 / me=umh / subme=10 / psy=1 / psy_rd=1.04:0.10 / mixed_ref=1 / me_range=32 / chroma_me=1 / trellis=2 / 8x8dct=1 / cqm=0 / deadzone=21,11 / fast_pskip=0 / chroma_qp_offset=-3 / threads=12 / lookahead_threads=2 / sliced_threads=0 / nr=0 / decimate=1 / interlaced=0 / bluray_compat=0 / constrained_intra=0 / bframes=9 / b_pyramid=2 / b_adapt=2 / b_bias=0 / direct=3 / weightb=1 / open_gop=0 / weightp=2 / keyint=240 / keyint_min=24 / scenecut=40 / intra_refresh=0 / rc=crf / mbtree=0 / crf=18.0 / qcomp=0.60 / qpmin=0 / qpmax=51 / qpstep=4 / ip_ratio=1.40 / pb_ratio=1.30 / aq=1:1.00
Language                                 : English
Default                                  : Yes
Forced                                   : No
Color range                              : Limited
Color primaries                          : BT.709
Transfer characteristics                 : BT.709
Matrix coefficients                      : BT.709

Audio
ID                                       : 2
Format                                   : AC-3
Format/Info                              : Audio Coding 3
Mode extension                           : CM (complete main)
Format settings, Endianness              : Big
Codec ID                                 : A_AC3
Duration                                 : 1 h 29 min
Bit rate mode                            : Constant
Bit rate                                 : 384 kb/s
Channel(s)                               : 6 channels
Channel positions                        : Front: L C R, Side: L R, LFE
Sampling rate                            : 48.0 kHz
Frame rate                               : 31.250 FPS (1536 spf)
Compression mode                         : Lossy
Stream size                              : 247 MiB (10%)
Title                                    : iTunes
Language                                 : Russian
Default                                  : Yes
Forced                                   : No

Menu
00:00:00.000                             : en:Глава 1
00:08:04.440                             : en:Глава 2
00:16:18.160                             : en:Глава 3
00:24:37.600                             : en:Глава 4
00:32:52.760                             : en:Глава 5
00:41:14.080                             : en:Глава 6
00:49:22.480                             : en:Глава 7
00:56:31.280                             : en:Глава 8
01:04:40.640                             : en:Глава 9
01:13:15.640                             : en:Глава 10
01:21:25.640                             : en:Глава 11




Скриншоты:
[+] Всего файлов в раздаче - 1:
Marafon.zelanij.2020.WEB-DL.720p.ExKinoRay.mkv2.31 GB

Показать еще раздачи по запросу марафон:
2020-04-27 U Самурайский марафон / Samurai marason / Samurai marathon (2019) BDRip 1080p | L1 7.54 GB ↑ 50 ↓ 23
2020-04-21 U Самурайский марафон / Samurai marason / Samurai marathon (2019) HDRip | L1 1.45 GB ↑ 357 ↓ 88
2020-03-08 U Марафон желаний (2020) WEB-DLRip от Scarabey | iTunes 1.44 GB ↑ 172 ↓ 29
2020-03-06 U Марафон желаний (2020) WEB-DLRip-AVC от ExKinoRay | iTunes 1.79 GB ↑ 72 ↓ 38
2020-03-05 U Марафон желаний (2020) WEB-DLRip | iTunes 743.53 MB ↑ 90 ↓ 683
2020-03-05 U Марафон желаний (2020) WEB-DL 1080p | iTunes 3.14 GB ↑ 426 ↓ 294
2020-02-12 U Мария Батхан - Марафон по Временам (Grammar) [Видеокурс] (2019) WEBRip 720p | MP4 2.57 GB ↑ 90 ↓ 16

Отзывы
Зарегистрируйтесь чтобы добавить комментарий.
Обратная связь
Copyleft ©