↑↓torrent.by
Поиск
Логин: Регистрация
Пароль: Восстановить пароль

Вторжение (2019) WEBRip 1080p

Скачать vtorzhenie-2019-webrip-1080p.torrent
U Магнитная ссылка Размер: 4.27 GB Раздают: 2300 Качают: 1440 Добавлен: 2020-03-07 20:38:56
Вторжение (2019) WEBRip 1080p

Название: Вторжение
Год выхода: 2019
Жанр: Фантастика, боевик
Страна: Россия
Перевод: Не требуется
Продолжительность: 02:07:50
Режиссер: Фёдор Бондарчук
В ролях:  Ирина Старшенбаум, Риналь Мухаметов, Александр Петров, Юрий Борисов, Сергей Гармаш, Олег Меньшиков, Даниил Кользенов, Сергей Троев, Игорь Костерин, Екатерина Степанова и др.

О фильме: Падение инопланетного объекта разделило жизни на «до» и «после». Обычная девушка из московского Чертанова — Юлия Лебедева — вынуждена смириться с ролью подопытного кролика в лаборатории, ведь она единственная была в контакте с пришельцем. Ученые и военные разбирают на атомы её чувства, эмоции и переживания, пытаясь разгадать природу растущей в ней силы. Но страшнее всего, что её сверхъестественные способности волнуют не только землян. Над планетой в буквальном смысле нависла угроза вторжения. И победить в грядущем столкновении можно только одним способом: найти в себе силы остаться людьми. Когда каждый ради общего спасения должен сделать выбор, от которого зависит жизнь и судьба миллионов, — смогут ли любовь, верность и милосердие стать сильнее безжалостной силы и инопланетных технологий?

Файл
Качество: WEBRip 1080p
Видео: MPEG-4 AVC, 1920x716, 4585 kbps, 25,000 fps
Звук: русский, AC3, 2.0 ch, 48 kHz, 192 kbps
Субтитры: нет

Релиз:


[+] MI
Общее
Уникальный идентификатор                 : 244713934595729209371804119692035291179 (0xB81A307F7234D697B82E407E0034F82B)
Полное имя                               : G:Torrent2VtorzhenieWebRip1080p.mkv
Формат                                   : Matroska
Версия формата                           : Version 4 / Version 2
Размер файла                             : 4,27 Гбайт
Продолжительность                        : 2 ч. 7 м.
Общий поток                              : 4779 Кбит/сек
Дата кодирования                         : UTC 2020-03-07 15:01:41
Программа кодирования                    : mkvmerge v9.5.0 ('Quiet Fire') 64bit
Библиотека кодирования                   : libebml v1.3.4 + libmatroska v1.4.5

Видео
Идентификатор                            : 1
Формат                                   : AVC
Формат/Информация                        : Advanced Video Codec
Профиль формата                          : High@L4.1
Настройки формата                        : CABAC / 5 Ref Frames
Параметр CABAC формата                   : Да
Параметр RefFrames формата               : 5 кадров
Идентификатор кодека                     : V_MPEG4/ISO/AVC
Продолжительность                        : 2 ч. 7 м.
Битрейт                                  : 4585 Кбит/сек
Ширина                                   : 1920 пикселей
Высота                                   : 716 пикселей
Соотношение сторон                       : 2,682
Режим частоты кадров                     : Постоянный
Частота кадров                           : 25,000 кадров/сек
Цветовое пространство                    : YUV
Субдискретизация насыщенности            : 4:2:0
Битовая глубина                          : 8 бит
Тип развёртки                            : Прогрессивная
Бит/(Пиксели*Кадры)                      : 0.133
Размер потока                            : 4,09 Гбайт (96%)
Язык                                     : Russian
Default                                  : Да
Forced                                   : Нет

Аудио
Идентификатор                            : 2
Формат                                   : AC-3
Формат/Информация                        : Audio Coding 3
Параметр Endianness формата              : Big
Идентификатор кодека                     : A_AC3
Продолжительность                        : 2 ч. 7 м.
Вид битрейта                             : Постоянный
Битрейт                                  : 192 Кбит/сек
Каналы                                   : 2 канала
Расположение каналов                     : Front: L R
Частота                                  : 48,0 КГц
Частота кадров                           : 31,250 кадров/сек (1536 SPF)
Битовая глубина                          : 16 бит
Метод сжатия                             : С потерями
Размер потока                            : 176 Мбайт (4%)
Заголовок                                : rus
Язык                                     : Russian
Default                                  : Да
Forced                                   : Нет




Скриншоты:
[+] Всего файлов в раздаче - 1:
VtorzhenieWebRip1080p.mkv4.27 GB

Показать еще раздачи по запросу вторжение:
2020-06-04 U Тайны Чапман. Вторжение в Антарктиду [эфир от 03.06] (2020) SATRip 655.83 MB ↑ 34 ↓ 6
2020-03-17 U Вторжение (2019) BDRip-AVC | GER Transfer | Лицензия 2.87 GB ↑ 189 ↓ 36
2020-03-17 U Вторжение (2019) HDRip от Scarabey | GER Transfer | Лицензия 1.45 GB ↑ 289 ↓ 31
2020-03-16 U Вторжение (2019) BDRip от Twister & ExKinoRay | GER Transfer | Лицензия 1.46 GB ↑ 75 ↓ 37
2020-03-15 U Вторжение (2019) BDRip 1080p от HDReactor | GER Transfer | Локализованная версия 11.65 GB ↑ 349 ↓ 202
2020-03-14 U Вторжение (2019) BDRip 1080p от OlLanDGroup | GER Transfer | Лицензия 10.97 GB ↑ 183 ↓ 48
2020-03-12 U Вторжение (2019) BDRip 1080p от селезень | GER Transfer | Лицензия 12.03 GB ↑ 636 ↓ 663

Отзывы
Зарегистрируйтесь чтобы добавить комментарий.
Обратная связь
Copyleft ©