↑↓torrent.by
Поиск
Логин: Регистрация
Пароль: Восстановить пароль

Вторжение (2019) WEBRip от GeneralFilm

Скачать vtorzhenie-2019-webrip-ot-generalfilm.torrent
U Магнитная ссылка Размер: 1.46 GB Раздают: 325 Качают: 135 Добавлен: 2020-03-08 12:37:11
Вторжение (2019) WEBRip от GeneralFilm

Оригинальное название: Вторжение
Год выпуска: 2019
Жанр:  Фантастика, боевик
Выпущено: Россия, Art Pictures Studio, Vodorod
Режиссер: Фёдор Бондарчук
В ролях: Ирина Старшенбаум, Риналь Мухаметов, Александр Петров, Юрий Борисов, Сергей Гармаш, Олег Меньшиков, Даниил Кользенов, Сергей Троев, Игорь Костерин, Екатерина Степанова и др.

О фильме: Падение инопланетного объекта разделило жизни на «до» и «после». Обычная девушка из московского Чертанова — Юлия Лебедева — вынуждена смириться с ролью подопытного кролика в лаборатории, ведь она единственная была в контакте с пришельцем. Ученые и военные разбирают на атомы её чувства, эмоции и переживания, пытаясь разгадать природу растущей в ней силы. Но страшнее всего, что её сверхъестественные способности волнуют не только землян. Над планетой в буквальном смысле нависла угроза вторжения. И победить в грядущем столкновении можно только одним способом: найти в себе силы остаться людьми. Когда каждый ради общего спасения должен сделать выбор, от которого зависит жизнь и судьба миллионов, — смогут ли любовь, верность и милосердие стать сильнее безжалостной силы и инопланетных технологий?

Качество: WEBRip
Видео: XviD build 73, 720x304 (2.35:1), 25.000 fps, 1430 Kbps (0.292 bit/pixel)
Аудио: 48.0 kHz, MP3, 2/0 ch, 192 kbps
Продолжительность: 02:07:50
Перевод: Не требуется [Русский]
Cубтитры: нет

Релиз:


[+] MediaInfo
General
Complete name               : D:RazdachiVtorzhenie.2019.WEBRip.GeneralFilm.avi
Format                      : AVI
Format/Info                 : Audio Video Interleave
File size                   : 1.46 GiB
Duration                    : 2 h 7 min
Overall bit rate            : 1 632 kb/s
Writing application         : VirtualDubMod 1.5.10.3 | www.virtualdub-fr.org || (build 2550/release)
Writing library             : VirtualDubMod build 2550/release

Video
ID                          : 0
Format                      : MPEG-4 Visual
Format profile              : Advanced Simple@L5
Format settings             : BVOP1 / Custom Matrix
Format settings, BVOP       : 1
Format settings, QPel       : No
Format settings, GMC        : No warppoints
Format settings, Matrix     : Custom
Codec ID                    : XVID
Codec ID/Hint               : XviD
Duration                    : 2 h 7 min
Bit rate                    : 1 430 kb/s
Width                       : 720 pixels
Height                      : 272 pixels
Display aspect ratio        : 2.647
Frame rate                  : 25.000 FPS
Color space                 : YUV
Chroma subsampling          : 4:2:0
Bit depth                   : 8 bits
Scan type                   : Progressive
Compression mode            : Lossy
Bits/(Pixel*Frame)          : 0.292
Stream size                 : 1.28 GiB (88%)
Writing library             : XviD 73

Audio
ID                          : 1
Format                      : MPEG Audio
Format version              : Version 1
Format profile              : Layer 3
Codec ID                    : 55
Codec ID/Hint               : MP3
Duration                    : 2 h 7 min
Bit rate mode               : Constant
Bit rate                    : 192 kb/s
Channel(s)                  : 2 channels
Sampling rate               : 48.0 kHz
Frame rate                  : 41.667 FPS (1152 SPF)
Compression mode            : Lossy
Stream size                 : 176 MiB (12%)
Alignment                   : Aligned on interleaves
Interleave, duration        : 40  ms (1.00 video frame)
Interleave, preload duratio : 504  ms
Writing library             : LAME3.99r
Encoding settings           : -m s -V 4 -q 2 -lowpass 18.6 -b 192



Скриншоты:
[+] Всего файлов в раздаче - 1:
Vtorzhenie.2019.WEBRip.GeneralFilm.avi1.46 GB

Показать еще раздачи по запросу вторжение:
2020-04-18 U Павел Коршунов - Вторжение: Галактика онлайн 1. Активация (2020) МР3 252.91 MB ↑ 33 ↓ 2
2020-03-17 U Вторжение (2019) BDRip-AVC | GER Transfer | Лицензия 2.87 GB ↑ 179 ↓ 36
2020-03-17 U Вторжение (2019) HDRip от Scarabey | GER Transfer | Лицензия 1.45 GB ↑ 209 ↓ 29
2020-03-16 U Вторжение (2019) BDRip от Twister & ExKinoRay | GER Transfer | Лицензия 2.18 GB ↑ 58 ↓ 21
2020-03-16 U Вторжение (2019) BDRip от Twister & ExKinoRay | GER Transfer | Лицензия 1.46 GB ↑ 75 ↓ 37
2020-03-15 U Вторжение (2019) BDRip 1080p от HDReactor | GER Transfer | Локализованная версия 11.65 GB ↑ 308 ↓ 202
2020-03-15 U Вторжение (2019) BDRip-HEVC 1080p от HEVC-CLUB | GER Transfer | Лицензия 7.02 GB ↑ 162 ↓ 101

Отзывы
Зарегистрируйтесь чтобы добавить комментарий.
Обратная связь
Copyleft ©