↑↓torrent.by
Поиск
Логин: Регистрация
Пароль: Восстановить пароль

Война в Корее [01-04 из 04] (2012) HDTVRip от New-Team

Скачать voyna-v-koree-01-04-iz-2012-hdtvrip-ot-new-team.torrent
U Магнитная ссылка Размер: 2.18 GB Раздают: 41 Качают: 7 Добавлен: 2020-03-11 04:00:44
Война в Корее [01-04 из 04] (2012) HDTVRip от New-Team

Мы "В КОНТАКТЕ"

Страна: Россия, Украина
Производство: Star Media, Babich-Design

Жанр:  документальный, военный, история
Год выпуска: 2012
Продолжительность: 03:23:18 (00:52:26 + 00:50:06 + 00:50:26 + 00:50:20)

Перевод: Не требуется
Cубтитры: нет
Оригинальная аудиодорожка: русский

Режиссер: Павел Тупик

Описание:
Документальный сериал посвящен "неизвестной и странной" Корейской войне (1950-1953 гг.). Долгое время правительство СССР замалчивало участие советских военных в этой операции, а некоторые документы остаются недоступными для изучения до сих пор.

Исходник: HDTV 1080i
Качество видео: HDTVRip
Формат: AVI

Видео: 720x400 (16:9), 25 fps, XviD ~ 1332 kbps avg, 0.185 bit/pixel
Аудио: 48 kHz, Dolby Digital AC3 2.0, 192 kbps

Раздача от:


[+] MediaInfo

Общее
Полное имя                               : Voyna.v.Koree.2012.BDRip_[New-team]_by_AVP_Studio.avi
Формат                                   : AVI
Формат/Информация                        : Audio Video Interleave
Размер файла                             : 575 Мбайт
Продолжительность                        : 52 м. 26 с.
Общий поток                              : 1533 Кбит/сек
Программа кодирования                    : VirtualDubMod 1.5.10.3 | www.virtualdub-fr.org || (build 2550/release)
Библиотека кодирования                   : VirtualDubMod build 2550/release

Видео
Идентификатор                            : 0
Формат                                   : MPEG-4 Visual
Профиль формата                          : Advanced Simple@L5
Параметр BVOP формата                    : 1
Параметр QPel формата                    : Нет
Параметр GMC формата                     : Без точки перехода
Параметр матрицы формата                 : Выборочная
Идентификатор кодека                     : XVID
Идентификатор кодека/Подсказка           : XviD
Продолжительность                        : 52 м. 26 с.
Битрейт                                  : 1332 Кбит/сек
Ширина                                   : 720 пикселей
Высота                                   : 400 пикселей
Соотношение сторон                       : 16:9
Частота кадров                           : 25,000 кадров/сек
Цветовое пространство                    : YUV
Субдискретизация насыщенности            : 4:2:0
Битовая глубина                          : 8 бит
Тип развёртки                            : Прогрессивная
Метод сжатия                             : С потерями
Бит/(Пиксели*Кадры)                      : 0.185
Размер потока                            : 499 Мбайт (87%)
Библиотека кодирования                   : XviD 73

Аудио
Идентификатор                            : 1
Формат                                   : AC-3
Формат/Информация                        : Audio Coding 3
Параметр Endianness формата              : Big
Идентификатор кодека                     : 2000
Продолжительность                        : 52 м. 26 с.
Вид битрейта                             : Постоянный
Битрейт                                  : 192 Кбит/сек
Каналы                                   : 2 канала
Расположение каналов                     : Front: L R
Частота                                  : 48,0 КГц
Частота кадров                           : 31,250 кадров/сек (1536 SPF)
Битовая глубина                          : 16 бит
Метод сжатия                             : С потерями
Размер потока                            : 72,0 Мбайт (13%)
Выравнивание                             : Разделение по промежуткам
Продолжительность промежутка             : 40  мс. (1,00 видеокадр)
Время предзагрузки промежутка            : 500  мс



Скриншоты:
[+] Всего файлов в раздаче - 4:
Серия 02.avi549.73 MB
Серия 04.avi552.24 MB
Серия 03.avi553.24 MB
Серия 01.avi575.13 MB

Показать еще раздачи по запросу война:
2020-05-19 U Война миров / War of the Worlds (2005) UHD BDRemux 2160p от селезень | 4K | HDR | D, P2, A 53.52 GB ↑ 29 ↓ 32
2020-05-09 U Темная Лига справедливости: Война апокалипсиса / Justice League Dark: Apokolips War (2020) WEBRip 720p от NewComers | P 1.97 GB ↑ 48 ↓ 10
2020-05-09 U Темная Лига справедливости: Война апокалипсиса / Justice League Dark: Apokolips War (2020) WEBRip 1080p от NewComers | P 3.35 GB ↑ 44 ↓ 16
2020-05-08 U Темная Лига справедливости: Война апокалипсиса / Justice League Dark: Apokolips War (2020) WEBRip 720p от NewComers | P 2.01 GB ↑ 87 ↓ 15
2020-05-08 U Темная Лига справедливости: Война апокалипсиса / Justice League Dark: Apokolips War (2020) WEBRip от NewComers | P 1.64 GB ↑ 74 ↓ 29
2020-05-08 U Темная Лига справедливости: Война апокалипсиса / Justice League Dark: Apokolips War (2020) WEBRip 1080p от NewComers | P 3.39 GB ↑ 122 ↓ 46
2020-05-01 U Олег Таругин - Волкодавы СМЕРШа. Тихая война (2020) MP3 407.71 MB ↑ 68 ↓ 9

Отзывы
Зарегистрируйтесь чтобы добавить комментарий.
Обратная связь
Copyleft ©