↑↓torrent.by
Поиск
Логин: Регистрация
Пароль: Восстановить пароль

Nat Geo Wild: Змеиный остров: Дикие и смертоносные / Snake Island: Wild and Deadly (2020) HDTV 1080i | P1

Скачать nat-geo-wild-zmeinyy-ostrov-dikie-i-smertonosnye-snake-island-and-deadly-2020-hdtv-1080i-p1.torrent
U Магнитная ссылка Размер: 2.19 GB Раздают: 20 Качают: 7 Добавлен: 2020-03-11 04:09:13
Nat Geo Wild: Змеиный остров: Дикие и смертоносные / Snake Island: Wild and Deadly (2020) HDTV  1080i | P1

Название: Змеиный остров: Дикие и смертоносные
Оригинальное название: Snake Island: Wild and Deadly
Год выхода: 2020
Жанр: Документальный, природа, флора, фауна
Режиссер: Джоди Де Баррос

О фильме:
На бесплодном австралийском острове смертельно опасные тигровые змеи умудряются процветать, несмотря на соседство своего жестокого противника, который наносит им ужасные раны.

Страна: Австралия
Студия: SEA DOG TV INTERNATIONAL PTY LTD, SCREENWEST LTD.
Продолжительность: 00:43:59
Перевод: Профессиональный (одноголосый закадровый) Велес

Файл
Кодек: AVC/H.264
Качество: HDTV  1080i
Видео: 1920x1080 (16:9), 25 fps, AVC (H.264), High@L4, 6438 kbps, 0.124 bit/pixel
Звук:
Русский 48 kHz, MPEG Layer 2, 2 ch, ~192.00 kbps avg
Английский 48 kHz, MPEG Layer 2, 2 ch, ~128.00 kbps avg

Семпл

Релиз от: kyba
[+] MediaInfo
Complete name               : F:НаладкиЗмеиный остров.ts
Format                      : MPEG-TS
File size                   : 2.19 GiB
Duration                    : 43 min 59 s
Overall bit rate mode       : Variable
Overall bit rate            : 7 113 kb/s

Video
ID                          : 308 (0x134)
Menu ID                     : 26008 (0x6598)
Format                      : AVC
Format/Info                 : Advanced Video Codec
Format profile              : High@L4
Format settings             : CABAC / 4 Ref Frames
Format settings, CABAC      : Yes
Format settings, Reference  : 4 frames
Codec ID                    : 27
Duration                    : 43 min 58 s
Bit rate                    : 6 438 kb/s
Width                       : 1 920 pixels
Height                      : 1 080 pixels
Display aspect ratio        : 16:9
Frame rate                  : 25.000 FPS
Standard                    : Component
Color space                 : YUV
Chroma subsampling          : 4:2:0
Bit depth                   : 8 bits
Scan type                   : Interlaced
Scan type, store method     : Separated fields
Scan order                  : Top Field First
Bits/(Pixel*Frame)          : 0.124
Stream size                 : 1.98 GiB (91%)
Color range                 : Limited
Color primaries             : BT.709
Transfer characteristics    : BT.709
Matrix coefficients         : BT.709

Audio #1
ID                          : 408 (0x198)
Menu ID                     : 26008 (0x6598)
Format                      : MPEG Audio
Format version              : Version 1
Format profile              : Layer 2
Codec ID                    : 3
Duration                    : 43 min 58 s
Bit rate mode               : Constant
Bit rate                    : 192 kb/s
Channel(s)                  : 2 channels
Sampling rate               : 48.0 kHz
Frame rate                  : 41.667 FPS (1152 SPF)
Compression mode            : Lossy
Stream size                 : 60.4 MiB (3%)
Language                    : Russian

Audio #2
ID                          : 428 (0x1AC)
Menu ID                     : 26008 (0x6598)
Format                      : MPEG Audio
Format version              : Version 1
Format profile              : Layer 2
Codec ID                    : 3
Duration                    : 43 min 58 s
Bit rate mode               : Constant
Bit rate                    : 128 kb/s
Channel(s)                  : 2 channels
Sampling rate               : 48.0 kHz
Frame rate                  : 41.667 FPS (1152 SPF)
Compression mode            : Lossy
Stream size                 : 40.3 MiB (2%)
Language                    : English

Text
ID                          : 508 (0x1FC)
Menu ID                     : 26008 (0x6598)
Format                      : DVB Subtitle
Codec ID                    : 6
Duration                    : 43 min 57 s
Delay relative to video     : 580 ms
Language                    : Russian



Скриншоты:
[+] Всего файлов в раздаче - 1:
Змеиный остров.ts2.19 GB

Показать еще раздачи по запросу wild:
2020-05-07 U Nat Geo Wild: Кошачьи приемы / Cat Attack-Tics (2019) HDTV 1080i | P1 2.25 GB ↑ 32 ↓ 8
2020-05-07 U Зов предков / The Call of the Wild (2020) BDRip-HEVC 1080p от HEVC-CLUB | iTunes 3.98 GB ↑ 60 ↓ 18
2020-05-05 U Лабиринты мира 11: Дикий Край / Labyrinths of the World 11: The Wild Side (2020) PC 1.28 GB ↑ 68 ↓ 14
2020-05-05 U Зов предков / The Call of the Wild (2020) BDRip от Twister & ExKinoRay | iTunes 1.42 GB ↑ 80 ↓ 12
2020-05-05 U Зов предков / The Call of the Wild (2020) HDRip от Scarabey | iTunes 1.40 GB ↑ 27 ↓ 8
2020-05-05 U Зов предков / The Call of the Wild (2020) UHD BDRemux 2160p от селезень | 4K | HDR | D, P | iTunes 48.79 GB ↑ 61 ↓ 82
2020-05-05 U Зов предков / The Call of the Wild (2020) BDRip-AVC | D, P, | iTunes 2.85 GB ↑ 141 ↓ 28

Отзывы
Зарегистрируйтесь чтобы добавить комментарий.
Обратная связь
Copyleft ©